波西·杰克逊与神火之盗[国英多音轨/简繁英双语字幕].Percy.Jackson.the.Olympians.The.Lightning.Thief.2010.BluRay.1080p.2Audio.DTS-HD.MA5.1.x265.10bit-ALT

版主小s 1月前 315

✔资源类型:暂未分类   ✔电影年份:2010   ✔电影地区:欧美   ✔电影分类:奇幻

◎标  题 波西·杰克逊与神火之盗
◎译  名 波西杰克森:神火之贼(港 / 台) / 珀西·杰克逊和闪电窃贼 / 波西·杰克逊与闪电贼 / Percy Jackson and the Lightning Thief
◎片  名 Percy Jackson & the Olympians: The Lightning Thief
◎年  代 2010
◎产  地 英国 / 加拿大 / 美国
◎类  别 奇幻 / 冒险
◎语  言 英语
◎上映日期 2010-03-14(中国大陆) / 2010-02-12(美国)
◎IMDb评分 5.9/10 (183646人评价)
◎IMDb链接 https://www.imdb.com/title/tt0814255/
◎豆瓣评分 6.0/10 (51232人评价)
◎豆瓣链接 https://movie.douban.com/subject/3090455/
◎片  长 118 分钟
◎导  演 克里斯·哥伦布 Chris Columbus
◎编  剧 克雷格·提特利 Craig Titley
       里克·赖尔登 Rick Riordan
◎演  员 罗根·勒曼 Logan Lerman
       布兰登·T·杰克逊 Brandon T. Jackson
       亚历珊德拉·达达里奥 Alexandra Daddario
       杰克·阿贝尔 Jake Abel
       肖恩·宾 Sean Bean
       皮尔斯·布鲁斯南 Pierce Brosnan
       史蒂夫·库根 Steve Coogan
       罗莎里奥·道森 Rosario Dawson
       梅琳娜·卡纳卡罗兹 Melina Kanakaredes
       凯瑟琳·基纳 Catherine Keener
       凯文·麦克基德 Kevin McKidd
       乔·潘托里亚诺 Joe Pantoliano
       乌玛·瑟曼 Uma Thurman
       朱利安·瑞钦斯 Julian Richings
       博妮塔·弗里德里西 Bonita Friedericy
       安妮·伊隆泽 Annie Ilonzeh
       路易莎·德奥维拉 Luisa D'Oliveira
       塔尼亚·索尔尼尔 Tania Saulnier
       克里斯蒂·莱恩 Christie Laing
       玛莉·艾格洛蒲露丝 Marie Avgeropoulos
       玛丽·贾菲 Marielle Jaffe
       亚历克西斯·克纳普 Alexis Knapp
       查理·加兰特 Charlie Gallant
       切兰·西蒙斯 Chelan Simmons
       娜塔莎·迈尔兹 Natassia Malthe
       安德里亚·布鲁克斯 Andrea Brooks
       Jocelyn Panton Jocelyn Panton
       马克斯·范·维利 Max Van Ville
       赛琳达·斯万 Serinda Swan
       奥娜·格奥尔 Ona Grauer
       康拉德·科茨 Conrad Coates
       艾瑞卡·塞拉 Erica Cerra
       迪兰·尼尔 Dylan Neal
       卢克·卡米莱 Luke Camilleri
       Raquel Riskin Raquel Riskin
       田· 薇拉莉 Valerie Tian
       萨拉·史密斯 Sarah Smyth
       梅里特·帕特森 Merritt Patterson
       斯坦·卡普 Stan Carp
       理查德·哈蒙 Richard Harmon
       玛利亚·奥尔森 Maria Olsen
       凯斯·达拉斯 Keith Dallas
       Tim Aas Tim Aas
       赞恩·霍尔茨 Zane Holtz
       Eli Zagoudakis Eli Zagoudakis
       罗布·海特尔 Rob Hayter
       加洛德·约瑟夫 Jarod Joseph
       雷利·多尔曼 reilly dolman
       帕特里克·柯里 G.Patrick Currie
       杰米·M·卡利卡 Jaime M. Callica
       丹妮拉·迪布 Daniela Dib
       萨拉·弗朗西丝 Sarah Francis
       Eddie Garcia Eddie Garcia
       帕特里克·萨邦圭 Patrick Sabongui
       姜广涛 Guangtao Jiang
        Kyle Cornell
       乔瓦娜·休盖特 Jovanna Huguet
       安娜·库奇马 Anna Kuchma
       Ryan Moran Ryan Moran
       杰伊·费拉罗 Jay Ferraro
       劳拉·雅各布斯 Laura Jacobs
       Thomas M. Hammel Thomas M. Hammel
       马克·雷德克里夫 Mark Radcliffe
       克里斯·哥伦布 Chris Columbus
       克里斯托弗·贝克 Christophe Beck
       斯蒂芬·戈德布拉特 Stephen Goldblatt
       彼得·霍尼斯 Peter Honess
       科琳·梅尔斯 Coreen Mayrs
       海克·布兰德斯塔特 Heike Brandstatter
       珍妮特·希尔森 Janet Hirshenson
       简·詹金斯 Jane Jenkins
       Dan Hermansen Dan Hermansen
       彼得·兰多 Peter Lando
       James Steuart James Steuart
       Ross Dempster Ross Dempster
       蕾妮·艾珀尔 Renée April
       维多利亚·道恩 Victoria Down
       比尔·特雷扎基斯 Bill Terezakis
       罗伯特·A·潘蒂尼 Robert A. Pandini
       Dan Mansfield Dan Mansfield
       Debra Herst Debra Herst
       Nick Satriano Nick Satriano
       彼得·麦克唐纳德 Peter MacDonald
        Robert Rogers
       拉斯·P·温特 Lars P. Winther
       Rhonda Taylor Rhonda Taylor
        Sven Dreesbach
        Adam Blank
        Jamie Hartnett
       Yoshi DeHerrera Yoshi DeHerrera
       Marco Checa Garcia Marco Checa Garcia
       Aruna Inversin Aruna Inversin
        Thomas Dane Wagener
        Katie Godwin
       P·凯文·斯科特 P. Kevin Scott
        Anthony Grant
        Adam Chazen
       约瑟夫·扎基 Joseph Zaki
       贾斯汀·范·德·莱克 Justin van der Lek
       米奇·保尔森 Mitch Paulson
       Geoff Pedder Geoff Pedder
       Steve Griffith Steve Griffith
       内森·布伦斯基尔 Nathan Brunskill
        Clark Parkhurst
       Rob Meyers Rob Meyers
        Michael Habenicht
        Wolfgang Haas
       Andrew Bradbury Andrew Bradbury
       Boris T. Duepré Boris T. Duepré
       Justin Porter Justin Porter
       罗杰·库帕里安 Roger Kupelian
       John Cassella John Cassella
       帕特里克·克兰斯 Patrick Clancey
       克里斯·斯坦纳 Chris Stenner
       Simone Kraus Simone Kraus
       Paul Taylor Paul Taylor
       Mårten Larsson Mårten Larsson
       斯科特·埃德斯坦 Scott Edelstein
       丹尼尔·P·罗森 Daniel P. Rosen
       凯利·波特 Kelly Port
       凯西·艾伦 Casey Allen
       安东尼·哈里斯 Anthony Harris
       拉斐尔·皮门特尔 Raphael A. Pimentel
       Ezekiel Norton Ezekiel Norton
       杰夫·沃尔弗顿 Jeff Wolverton
       Hanzhi Tang Hanzhi Tang
        Ben Taylor
       布赖恩·贝根 Brian Begun
       Michael Coldewey Michael Coldewey
       肖恩·安德鲁·法登 Sean Andrew Faden
       让·勒庞 Jean Lapointe
       凯文·斯科特·麦克 Kevin Scott Mack
       马克·安德烈·萨姆森 Marc-Andre Samson
       埃德森·威廉姆斯 Edson Williams
       保罗·坎皮恩 Paul Campion
       张鹏 Peng Zhang
       帕特里克·柯里 G.Patrick Currie

◎标  签 魔幻 / 美国 / 奇幻 / 美国电影 / 2010 / 科幻 / 珀西·杰克森和闪电窃贼 / 电影

◎简  介
  黑夜,天神宙斯召见海神波塞冬,称其子偷了闪电火,要挟他若不尽快找回,必将开战。现实中,波塞冬与人妻萨利之子波西杰克逊(罗根•勒曼 Logan Lerman 饰)是个大学生,17岁的他可以在水下呆7分钟,但对老师关于莎翁的提问不感兴趣。参观博物馆时,他遇到了摇着轮椅的人马老师(皮尔斯•布鲁斯南 Pierce Brosnan 饰)。而文学老师却变身成了复仇女神,向他逼问闪电火的下落。幸好人马教授和羊男朋友及时赶到,化险为夷。他们带波西来到营地,训练波西,他们找来了一个女战士安娜贝斯(亚历山德拉•达达里奥 Alexandra Daddario饰)与之比武。落败后,触水的波西被激活了潜能,成为奋勇无敌的战士,并开始踏上了追寻闪电火的英雄之旅。面对蛇女美杜莎等神怪的攻击,冥王冥后珀尔赛弗涅的刁难,他的自我救赎只剩下10天……
  1. ##### MediaInfo ######
  2. General
  3. Unique ID                                : 300333373432845633292878874627868826978 (0xE1F21A8D595A7583F224C334E0E99D62)
  4. Complete name                            : Percy.Jackson.the.Olympians.The.Lightning.Thief.2010.BluRay.1080p.2Audio.DTS-HD.MA5.1.x265.10bit-ALT.mkv
  5. Format                                   : Matroska
  6. Format version                           : Version 4
  7. File size                                : 12.0 GiB
  8. Duration                                 : 1 h 58 min
  9. Overall bit rate mode                    : Variable
  10. Overall bit rate                         : 14.5 Mb/s
  11. Encoded date                             : UTC 2021-09-19 03:41:28
  12. Writing application                      : mkvmerge v49.0.0 ('Sick Of Losing Soulmates') 64-bit
  13. Writing library                          : libebml v1.4.0 + libmatroska v1.6.1
  14. Video
  15. ID                                       : 1
  16. Format                                   : HEVC
  17. Format/Info                              : High Efficiency Video Coding
  18. Format profile                           : Main 10@L5.1@High
  19. Codec ID                                 : V_MPEGH/ISO/HEVC
  20. Duration                                 : 1 h 58 min
  21. Bit rate                                 : 9 873 kb/s
  22. Width                                    : 1 920 pixels
  23. Height                                   : 816 pixels
  24. Display aspect ratio                     : 2.35:1
  25. Frame rate mode                          : Constant
  26. Frame rate                               : 23.976 (24000/1001/53354) FPS
  27. Color space                              : YUV
  28. Chroma subsampling                       : 4:2:0
  29. Bit depth                                : 10 bits
  30. Bits/(Pixel*Frame)                       : 0.263
  31. Stream size                              : 8.18 GiB (68%)
  32. Title                                    : HEVC, x265Main10@L5.1@High, 24/1.001 fps @ 9872 kbps
  33. Writing library                          : x265 3.4+14-gd419c7152:[Windows][GCC 10.2.0][64 bit] 10bit
  34. Encoding settings                        : cpuid=533541111039 / frame-threads=4 / numa-pools=16 / wpp / pmode / pme / no-psnr / no-ssim / log-level=2 / input-csp=1 / input-res=1920x816 / interlace=0 / total-frames=170659 / level-idc=51 / high-tier=1 / uhd-bd=0 / ref=5 / no-allow-non-conformance / no-repeat-headers / annexb / no-aud / no-hrd / info / hash=0 / no-temporal-layers / open-gop / min-keyint=24 / keyint=240 / gop-lookahead=0 / bframes=6 / b-adapt=2 / b-pyramid / bframe-bias=0 / rc-lookahead=40 / lookahead-slices=0 / NTMzNTQ=uuDQuD2mJt9fsCf / scenecut=40 / hist-scenecut=0 / radl=0 / no-splice / no-intra-refresh / ctu=32 / min-cu-size=8 / no-rect / no-amp / max-tu-size=32 / tu-inter-depth=3 / tu-intra-depth=3 / limit-tu=4 / rdoq-level=2 / dynamic-rd=0.00 / no-ssim-rd / signhide / no-tskip / nr-intra=0 / nr-inter=0 / no-constrained-intra / no-strong-intra-smoothing / max-merge=4 / limit-refs=1 / limit-modes / me=3 / subme=4 / merange=25 / temporal-mvp / no-frame-dup / no-hme / weightp / weightb / no-analyze-src-pics / deblock=-3:-3 / no-sao / no-sao-non-deblock / rd=6 / selective-sao=0 / no-early-skip / rskip / no-fast-intra / no-tskip-fast / no-cu-lossless / b-intra / no-splitrd-skip / rdpenalty=0 / psy-rd=2.00 / psy-rdoq=1.00 / no-rd-refine / no-lossless / cbqpoffs=0 / crqpoffs=0 / rc=crf / crf=17.0 / qcomp=0.65 / qpstep=4 / stats-write=0 / stats-read=0 / vbv-maxrate=80000 / vbv-bufsize=80000 / vbv-init=0.9 / crf-max=0.0 / crf-min=0.0 / ipratio=1.40 / pbratio=1.30 / aq-mode=2 / aq-strength=0.85 / cutree / zone-count=0 / no-strict-cbr / qg-size=32 / no-rc-grain / qpmax=69 / qpmin=0 / no-const-vbv / sar=1 / overscan=0 / videoformat=5 / range=0 / colorprim=1 / transfer=1 / colormatrix=1 / chromaloc=0 / display-window=0 / cll=0,0 / min-luma=0 / max-luma=1023 / log2-max-poc-lsb=8 / vui-timing-info / vui-hrd-info / slices=1 / no-opt-qp-pps / no-opt-ref-list-length-pps / no-multi-pass-opt-rps / scenecut-bias=0.05 / hist-threshold=0.03 / no-opt-cu-delta-qp / no-aq-motion / no-hdr10 / no-hdr10-opt / no-dhdr10-opt / no-idr-recovery-sei / analysis-reuse-level=0 / analysis-save-reuse-level=0 / analysis-load-reuse-level=0 / scale-factor=0 / refine-intra=0 / refine-inter=0 / refine-mv=1 / refine-ctu-distortion=0 / no-limit-sao / ctu-info=0 / no-lowpass-dct / refine-analysis-type=0 / copy-pic=1 / max-ausize-factor=1.0 / no-dynamic-refine / no-single-sei / no-hevc-aq / no-svt / no-field / qp-adaptation-range=1.00 / no-scenecut-aware-qpconformance-window-offsets / right=0 / bottom=0 / NTMzNTQ= / decoder-max-rate=0
  35. Language                                 : English
  36. Default                                  : Yes
  37. Forced                                   : No
  38. Color range                              : Limited
  39. Color primaries                          : BT.709
  40. Transfer characteristics                 : BT.709
  41. Matrix coefficients                      : BT.709
  42. Audio #1
  43. ID                                       : 2
  44. Format                                   : DTS XLL
  45. Format/Info                              : Digital Theater Systems
  46. Commercial name                          : DTS-HD Master Audio
  47. Codec ID                                 : A_DTS
  48. Duration                                 : 1 h 58 min
  49. Bit rate mode                            : Variable
  50. Bit rate                                 : 3 897 kb/s
  51. Channel(s)                               : 6 channels
  52. Channel layout                           : C L R Ls Rs LFE
  53. Sampling rate                            : 48.0 kHz
  54. Frame rate                               : 93.750 FPS (512 SPF)
  55. Bit depth                                : 24 bits
  56. Compression mode                         : Lossless
  57. Stream size                              : 3.23 GiB (27%)
  58. Title                                    : English DTS-HD Master Audio 5.1 @ 3897 kbps
  59. Language                                 : English
  60. Default                                  : Yes
  61. Forced                                   : No
  62. Audio #2
  63. ID                                       : 3
  64. Format                                   : AC-3
  65. Format/Info                              : Audio Coding 3
  66. Commercial name                          : Dolby Digital
  67. Codec ID                                 : A_AC3
  68. Duration                                 : 1 h 58 min
  69. Bit rate mode                            : Constant
  70. Bit rate                                 : 448 kb/s
  71. Channel(s)                               : 6 channels
  72. Channel layout                           : L R C LFE Ls Rs
  73. Sampling rate                            : 48.0 kHz
  74. Frame rate                               : 31.250 FPS (1536 SPF)
  75. Compression mode                         : Lossy
  76. Stream size                              : 380 MiB (3%)
  77. Title                                    : Mandarin Dolby Digital Audio 5.1 @ 448 kbps
  78. Language                                 : Chinese
  79. Service kind                             : Complete Main
  80. Default                                  : No
  81. Forced                                   : No
  82. Text #1
  83. ID                                       : 4
  84. Format                                   : PGS
  85. Codec ID                                 : S_HDMV/PGS
  86. Codec ID/Info                            : Picture based subtitle format used on BDs/HD-DVDs
  87. Duration                                 : 1 h 57 min
  88. Bit rate                                 : 35.4 kb/s
  89. Count of elements                        : 3174
  90. Stream size                              : 29.8 MiB (0%)
  91. Title                                    : Eng/SUP
  92. Language                                 : English
  93. Default                                  : No
  94. Forced                                   : No
  95. Text #2
  96. ID                                       : 5
  97. Format                                   : PGS
  98. Codec ID                                 : S_HDMV/PGS
  99. Codec ID/Info                            : Picture based subtitle format used on BDs/HD-DVDs
  100. Duration                                 : 1 h 51 min
  101. Bit rate                                 : 42.8 kb/s
  102. Count of elements                        : 2715
  103. Stream size                              : 34.0 MiB (0%)
  104. Title                                    : Chs/SUP  简体
  105. Language                                 : Chinese
  106. Default                                  : Yes
  107. Forced                                   : No
  108. Text #3
  109. ID                                       : 6
  110. Format                                   : PGS
  111. Codec ID                                 : S_HDMV/PGS
  112. Codec ID/Info                            : Picture based subtitle format used on BDs/HD-DVDs
  113. Duration                                 : 1 h 51 min
  114. Bit rate                                 : 43.6 kb/s
  115. Count of elements                        : 2715
  116. Stream size                              : 34.7 MiB (0%)
  117. Title                                    : Cht/SUP  繁体
  118. Language                                 : Chinese
  119. Default                                  : No
  120. Forced                                   : No
  121. Text #4
  122. ID                                       : 7
  123. Format                                   : PGS
  124. Codec ID                                 : S_HDMV/PGS
  125. Codec ID/Info                            : Picture based subtitle format used on BDs/HD-DVDs
  126. Duration                                 : 1 h 51 min
  127. Bit rate                                 : 69.3 kb/s
  128. Count of elements                        : 2715
  129. Stream size                              : 55.1 MiB (0%)
  130. Title                                    : Chs/SUP  简英双语
  131. Language                                 : Chinese
  132. Default                                  : No
  133. Forced                                   : No
  134. Text #5
  135. ID                                       : 8
  136. Format                                   : PGS
  137. Codec ID                                 : S_HDMV/PGS
  138. Codec ID/Info                            : Picture based subtitle format used on BDs/HD-DVDs
  139. Duration                                 : 1 h 51 min
  140. Bit rate                                 : 70.0 kb/s
  141. Count of elements                        : 2715
  142. Stream size                              : 55.7 MiB (0%)
  143. Title                                    : Cht/SUP  繁英双语
  144. Language                                 : Chinese
  145. Default                                  : No
  146. Forced                                   : No
  147. Menu
  148. 00:00:00.000                             : en:第 01 章
  149. 00:04:39.404                             : en:第 02 章
  150. 00:07:28.448                             : en:第 03 章
  151. 00:09:47.295                             : en:第 04 章
  152. 00:14:56.020                             : en:第 05 章
  153. 00:20:28.894                             : en:第 06 章
  154. 00:24:39.770                             : en:第 07 章
  155. 00:31:09.993                             : en:第 08 章
  156. 00:34:25.939                             : en:第 09 章
  157. 00:38:50.578                             : en:第 10 章
  158. 00:41:23.147                             : en:第 11 章
  159. 00:43:15.384                             : en:第 12 章
  160. 00:46:49.557                             : en:第 13 章
  161. 00:50:05.836                             : en:第 14 章
  162. 00:56:49.615                             : en:第 15 章
  163. 01:01:35.400                             : en:第 16 章
  164. 01:04:49.260                             : en:第 17 章
  165. 01:10:20.591                             : en:第 18 章
  166. 01:13:32.783                             : en:第 19 章
  167. 01:20:58.353                             : en:第 20 章
  168. 01:25:16.862                             : en:第 21 章
  169. 01:29:38.915                             : en:第 22 章
  170. 01:33:42.742                             : en:第 23 章
  171. 01:38:35.701                             : en:第 24 章
  172. 01:41:45.850                             : en:第 25 章
  173. 01:44:47.114                             : en:第 26 章
  174. 01:47:43.582                             : en:第 27 章
  175. 01:52:12.017                             : en:第 28 章




下载地址:

Percy.Jackson.the.Olympians.The.Lightning.Thief.2010.BluRay.1080p.2Audio.DTS-HD..torrent

BT9527电影天堂 1、BT9527电影天堂提供的BT文件均来源于互联网抓取,只供网友学习交流、技术提升使用。
2、我们遵守BitTorrent点对点协议原则,任何版权问题请联系原资源发布商,我们不处理任何版权纠纷,谢谢!如有争议请联系邮箱:BT9527#hotmail.com(#换成@)
3、如果您发现某页面或地址有错误,请联系站长邮箱BT9527#hotmail.com(#换成@),我们会尽快处理。您的热心是对BT9527电影天堂最大的支持。
4、本站建议去正规影院观看电影以支持电影行业发展。
最新回复 (0)

你可以在 登录 or 注册 后,对此帖发表评论!

返回
发新帖