完美陌生人[中文字幕].Perfect.Stranger.2007.1080p.BluRay.DD5.1.x265-10bit-BATHD 6.22GB

版主小s 1月前 291

✔资源类型:暂未分类   ✔电影年份:2007   ✔电影地区:欧美   ✔电影分类:悬疑

◎标  题 完美陌生人
◎译  名 勾引陌生人 / 亲陌杀机
◎片  名 Perfect Stranger
◎年  代 2007
◎产  地 美国
◎类  别 悬疑 / 惊悚 / 犯罪
◎语  言 英语
◎上映日期 2007-04-13(美国)
◎IMDb评分 5.7/10 (47801人评价)
◎IMDb链接 https://www.imdb.com/title/tt0457433/
◎豆瓣评分 6.6/10 (19606人评价)
◎豆瓣链接 https://movie.douban.com/subject/1777570/
◎片  长 109分钟
◎导  演 詹姆斯·弗雷 James Foley
◎编  剧 托德·考马尔尼基 Todd Komarnicki
       乔恩·博肯坎普 Jon Bokenkamp
◎演  员 哈莉·贝瑞 Halle Berry
       布鲁斯·威利斯 Bruce Willis
       吉奥瓦尼·瑞比西 Giovanni Ribisi
       理查德·波特诺 Richard Portnow
       加里·杜尔丹 Gary Dourdan
       弗洛伦西娅·洛扎诺 Florencia Lozano
       妮基·艾考克斯 Nicki Aycox
       凯思琳·查尔方特 Kathleen Chalfant
       丹妮娜·范·格拉斯 Daniella Van Graas
       帕蒂·达班维尔 Patti D'Arbanville
       科里亚·刘易斯 Clea Lewis
       塔玛拉·菲尔德曼 Tamara Feldman
       格里·贝克尔 Gerry Becker
       艾玛·赫明 Emma Heming
        Maya N. Blake
       Jared Burke Jared Burke
       伊翁娜·科帕奇·赖特 Yvonna Kopacz Wright
       海蒂·克鲁姆 Heidi Klum
       雷·威尔金森 Jay Wilkison
       迈克尔·托兰 Michael Tolan
       Stephen J. Eads Stephen J. Eads
       杰森·安顿 Jason Antoon
       Vincent Lamberti Vincent Lamberti
       罗纳德·M·博兹曼 Ronald M. Bozman
       Stephen J. Eads Stephen J. Eads
       查尔斯·纽沃斯 Charles Newirth
       安东尼奥·潘托 Antonio Pinto
       克里斯托弗·泰利弗森 Christopher Tellefsen
       Charley Beal Charley Beal
       比尔·格鲁姆 Bill Groom
       苏珊·博德 Susan Bode
       蕾妮·厄尔里奇·卡尔夫斯 Renee Ehrlich Kalfus
       巴巴拉·洛伦兹 Barbara Lorenz
       Linda Arnold Linda Arnold
       Norma Hill-Patton Norma Hill-Patton
       马修·麦克鲁塔 Matthew McLoota
       Glen Trotiner Glen Trotiner
       Eddie Micallef Eddie Micallef
       Camille Geier Camille Geier
       Kent Blocher Kent Blocher

◎简  介
  年轻干练的萝温娜·普莱斯(哈莉·贝瑞 Halle Berry 饰)是《纽约快报》的一名记者,她秉持正义,疾恶如仇。在一宗参议院同性恋性丑闻的报道被撤下后,萝温娜大发雷霆,一气之下辞去工作。在当晚,萝温娜邂逅多年未见的童年好友葛瑞丝,但一周后却得知葛瑞丝死于非命。                                    
                                葛瑞丝死前曾提到广告业巨头哈利森·希尔(布鲁斯·威利斯 Bruce Willis 饰)的名字,她与这个男人在网上结识,曾有过一段不伦之情。被对方甩掉后,葛瑞丝扬言要将奸情告诉哈利森的老婆。萝温娜判定这是一起谋杀案,她找来报社的搭档——同时也是网络高手——迈尔斯(Giovanni Ribisi 饰)协助调查。一场猫鼠游戏就此展开……
  1. ##### MediaInfo ######
  2. General
  3. Unique ID                                : 66159720541212609241098164613460228534 (0x31C5E61090A15FAE6C0388B2EE9379B6)
  4. Complete name                            : Perfect.Stranger.2007.1080p.BluRay.DD5.1.x265-10bit-BATHD.mkv
  5. Format                                   : Matroska
  6. Format version                           : Version 4
  7. File size                                : 6.22 GiB
  8. Duration                                 : 1 h 48 min
  9. Overall bit rate                         : 8 165 kb/s
  10. Movie name                               : Perfect Stranger 2007 1080p BluRay DD5.1 x265-10bit-HDS
  11. Encoded date                             : UTC 2022-08-08 00:01:43
  12. Writing application                      : mkvmerge v67.0.0 ('Under Stars') 64-bit
  13. Writing library                          : libebml v1.4.2 + libmatroska v1.6.4
  14. Video
  15. ID                                       : 1
  16. Format                                   : HEVC
  17. Format/Info                              : High Efficiency Video Coding
  18. Format profile                           : Main 10@L5.1@High
  19. Codec ID                                 : V_MPEGH/ISO/HEVC
  20. Duration                                 : 1 h 48 min
  21. Bit rate                                 : 7 485 kb/s
  22. Width                                    : 1 920 pixels
  23. Height                                   : 800 pixels
  24. Display aspect ratio                     : 2.40:1
  25. Frame rate mode                          : Constant
  26. Frame rate                               : 23.976 (24000/1001/53354) FPS
  27. Color space                              : YUV
  28. Chroma subsampling                       : 4:2:0
  29. Bit depth                                : 10 bits
  30. Bits/(Pixel*Frame)                       : 0.203
  31. Stream size                              : 5.70 GiB (92%)
  32. Title                                    : @HDSky
  33. Writing library                          : x265 - H.265/HEVC codec
  34. Default                                  : Yes
  35. Forced                                   : No
  36. Audio
  37. ID                                       : 2
  38. Format                                   : AC-3
  39. Format/Info                              : Audio Coding 3
  40. Commercial name                          : Dolby Digital
  41. Codec ID                                 : A_AC3
  42. Duration                                 : 1 h 48 min
  43. Bit rate mode                            : Constant
  44. Bit rate                                 : 640 kb/s
  45. Channel(s)                               : 6 channels
  46. Channel layout                           : L R C LFE Ls Rs
  47. Sampling rate                            : 48.0 kHz
  48. Frame rate                               : 31.250 FPS (1536 SPF)
  49. Compression mode                         : Lossy
  50. Stream size                              : 499 MiB (8%)
  51. Title                                    : English
  52. Language                                 : English
  53. Service kind                             : Complete Main
  54. Default                                  : Yes
  55. Forced                                   : No
  56. Text #1
  57. ID                                       : 3
  58. Format                                   : PGS
  59. Muxing mode                              : zlib
  60. Codec ID                                 : S_HDMV/PGS
  61. Codec ID/Info                            : Picture based subtitle format used on BDs/HD-DVDs
  62. Duration                                 : 1 h 41 min
  63. Bit rate                                 : 34.9 kb/s
  64. Count of elements                        : 3062
  65. Stream size                              : 25.2 MiB (0%)
  66. Title                                    : CHS
  67. Language                                 : Chinese
  68. Default                                  : Yes
  69. Forced                                   : No
  70. Text #2
  71. ID                                       : 4
  72. Format                                   : PGS
  73. Muxing mode                              : zlib
  74. Codec ID                                 : S_HDMV/PGS
  75. Codec ID/Info                            : Picture based subtitle format used on BDs/HD-DVDs
  76. Duration                                 : 1 h 41 min
  77. Bit rate                                 : 36.1 kb/s
  78. Count of elements                        : 3062
  79. Stream size                              : 26.1 MiB (0%)
  80. Title                                    : CHT
  81. Language                                 : Chinese
  82. Default                                  : Yes
  83. Forced                                   : No
  84. Menu
  85. 00:00:00.000                             : en:第 01 章
  86. 00:05:21.821                             : en:第 02 章
  87. 00:12:18.947                             : en:第 03 章
  88. 00:20:44.869                             : en:第 04 章
  89. 00:27:23.225                             : en:第 05 章
  90. 00:34:58.471                             : en:第 06 章
  91. 00:41:59.976                             : en:第 07 章
  92. 00:51:50.482                             : en:第 08 章
  93. 00:57:38.080                             : en:第 09 章
  94. 01:04:38.458                             : en:第 10 章
  95. 01:11:20.276                             : en:第 11 章
  96. 01:17:23.347                             : en:第 12 章
  97. 01:24:55.924                             : en:第 13 章
  98. 01:31:49.421                             : en:第 14 章
  99. 01:35:18.004                             : en:第 15 章
  100. 01:41:38.467                             : en:第 16 章




下载地址:

Perfect.Stranger.2007.1080p.BluRay.DD5.1.x265-10bit-BATHD.torrent

BT9527电影天堂 1、BT9527电影天堂提供的BT文件均来源于互联网抓取,只供网友学习交流、技术提升使用。
2、我们遵守BitTorrent点对点协议原则,任何版权问题请联系原资源发布商,我们不处理任何版权纠纷,谢谢!如有争议请联系邮箱:BT9527#hotmail.com(#换成@)
3、如果您发现某页面或地址有错误,请联系站长邮箱BT9527#hotmail.com(#换成@),我们会尽快处理。您的热心是对BT9527电影天堂最大的支持。
4、本站建议去正规影院观看电影以支持电影行业发展。
最新回复 (0)

你可以在 登录 or 注册 后,对此帖发表评论!

返回
发新帖