侏罗纪世界3[简繁英字幕].Jurassic.World.Dominion.2022.Extended.Edition.1080p.BluRay.DTS-X.7.1.x265-10bit-BATHD 15.62GB

版主小s 1月前 388

✔资源类型:暂未分类   ✔电影年份:2022   ✔电影地区:欧美   ✔电影分类:动作

◎标  题 侏罗纪世界3
◎译  名 侏罗纪世界3:统治 / 侏罗纪世界:统治霸权(港) / 侏罗纪世界:统霸天下(台) / 侏罗纪公园6 / Jurassic Park 6
◎片  名 Jurassic World: Dominion
◎年  代 2022
◎产  地 美国
◎类  别 动作 / 科幻 / 冒险
◎语  言 英语
◎上映日期 2022-06-10(美国/中国大陆) / 2022-06-01(韩国)
◎IMDb评分 6.4/10 (2331人评价)
◎IMDb链接 https://www.imdb.com/title/tt8041270/
◎豆瓣链接 https://movie.douban.com/subject/26873582/
◎片  长 146分钟
◎导  演 科林·特莱沃若 Colin Trevorrow
◎编  剧 科林·特莱沃若 Colin Trevorrow
       艾米丽·卡迈克尔 Emily Carmichael
       德里克·康纳利 Derek Connolly
       迈克尔·克莱顿 Michael Crichton
◎演  员 克里斯·帕拉特 Chris Pratt
       布莱丝·达拉斯·霍华德 Bryce Dallas Howard
       山姆·尼尔 Sam Neill
       劳拉·邓恩 Laura Dern
       杰夫·高布伦 Jeff Goldblum
       伊莎贝拉·瑟蒙 Isabella Sermon
       马莫多·阿西 Mamoudou Athie
       丹妮艾拉·皮内达 Daniella Pineda
       迪辰·拉克曼 Dichen Lachman
       黄荣亮 B.D. Wong
       克里斯托弗·普拉哈 Kristoffer Polaha
       奥玛·希 Omar Sy
       贾斯蒂斯·史密斯 Justice Smith
       坎贝尔·斯科特 Campbell Scott
       德汪达·怀斯 DeWanda Wise
       斯科特·黑兹 Scott Haze
       Freya Parker Freya Parker
       瓦拉达·塞图 Varada Sethu
       格利尼斯·戴维斯 Glynis Davies
       埃尔娃·崔尔 Elva Trill
       柯基·法尔考 Cokey Falkow
       伯纳多·桑托斯 Bernardo Santos
       迪米特里“维加斯”蒂瓦约 Dimitri 'Vegas' Thivaios
       小恩佐·斯奎利诺 Enzo Squillino Jr.
       特蕾莎·森登·加西亚 Teresa Cendon-Garcia
       杰克·约翰逊 Jake M. Johnson
       乔·阿泽帕迪 Joe Azzopardi
       帕特里克·克劳利 Patrick Crowley
       弗兰克·马歇尔 Frank Marshall
       史蒂文·斯皮尔伯格 Steven Spielberg
       科林·特莱沃若 Colin Trevorrow
       温斯顿·阿佐帕迪 Winston Azzopardi
       迈克·吉亚奇诺 Michael Giacchino
       约翰·施瓦兹曼 John Schwartzman
       马克·桑格 Mark Sanger
       妮娜·古德 Nina Gold
       凯文·詹金斯 Kevin Jenkins
       理查德·罗伯茨 Richard Roberts

◎简  介
  影片为《侏罗纪世界》系列的完结篇,故事的开篇设定在纳布拉尔岛被摧毁的四年后。如今,恐龙在世界各地与人类共同生活、共同捕猎。这一脆弱的平衡将重塑未来,并最终决定人类能否与史上最可怕生物共享这颗星球,并继续站在食物链的顶端。
  1. ##### MediaInfo ######
  2. General
  3. Unique ID                                : 53140819621829854201501532833524160577 (0x27FA8CB123132BD8A51E800B6DAB1841)
  4. Complete name                            : Jurassic.World.Dominion.2022.Extended.Edition.1080p.BluRay.DTS-X.7.1.x265-10bit-BATHD.mkv
  5. Format                                   : Matroska
  6. Format version                           : Version 4
  7. File size                                : 15.6 GiB
  8. Duration                                 : 2 h 40 min
  9. Overall bit rate mode                    : Variable
  10. Overall bit rate                         : 13.9 Mb/s
  11. Movie name                               : Jurassic World Dominion 2022 1080p BluRay DTS-X 7.1 x265-10bit-HDS
  12. Encoded date                             : UTC 2022-08-07 16:31:28
  13. Writing application                      : mkvmerge v69.0.0 ('Day And Age') 64-bit
  14. Writing library                          : libebml v1.4.2 + libmatroska v1.6.4
  15. Video
  16. ID                                       : 1
  17. Format                                   : HEVC
  18. Format/Info                              : High Efficiency Video Coding
  19. Format profile                           : Main 10@L5.1@High
  20. Codec ID                                 : V_MPEGH/ISO/HEVC
  21. Duration                                 : 2 h 40 min
  22. Bit rate                                 : 10.5 Mb/s
  23. Width                                    : 1 920 pixels
  24. Height                                   : 960 pixels
  25. Display aspect ratio                     : 2.000
  26. Frame rate mode                          : Constant
  27. Frame rate                               : 23.976 (24000/1001/53354) FPS
  28. Color space                              : YUV
  29. Chroma subsampling                       : 4:2:0
  30. Bit depth                                : 10 bits
  31. Bits/(Pixel*Frame)                       : 0.238
  32. Stream size                              : 11.8 GiB (75%)
  33. Title                                    : @HDSky
  34. Writing library                          : x265 - H.265/HEVC codec
  35. Default                                  : Yes
  36. Forced                                   : No
  37. Audio
  38. ID                                       : 2
  39. Format                                   : DTS XLL X
  40. Format/Info                              : Digital Theater Systems
  41. Commercial name                          : DTS-HD Master Audio
  42. Codec ID                                 : A_DTS
  43. Duration                                 : 2 h 40 min
  44. Bit rate mode                            : Variable
  45. Bit rate                                 : 3 301 kb/s
  46. Channel(s)                               : 8 channels
  47. Channel(s)_Original                      : Object Based
  48. ChannelLayout_Original                   : Object Based
  49. Sampling rate                            : 48.0 kHz
  50. Frame rate                               : 93.750 FPS (512 SPF)
  51. Bit depth                                : 24 bits
  52. Stream size                              : 3.70 GiB (24%)
  53. Title                                    : English
  54. Language                                 : English
  55. Default                                  : Yes
  56. Forced                                   : No
  57. Text #1
  58. ID                                       : 3
  59. Format                                   : PGS
  60. Muxing mode                              : zlib
  61. Codec ID                                 : S_HDMV/PGS
  62. Codec ID/Info                            : Picture based subtitle format used on BDs/HD-DVDs
  63. Duration                                 : 2 h 37 min
  64. Bit rate                                 : 36.8 kb/s
  65. Count of elements                        : 4074
  66. Stream size                              : 41.5 MiB (0%)
  67. Title                                    : ENG
  68. Language                                 : English
  69. Default                                  : Yes
  70. Forced                                   : No
  71. Text #2
  72. ID                                       : 4
  73. Format                                   : PGS
  74. Muxing mode                              : zlib
  75. Codec ID                                 : S_HDMV/PGS
  76. Codec ID/Info                            : Picture based subtitle format used on BDs/HD-DVDs
  77. Duration                                 : 2 h 31 min
  78. Bit rate                                 : 58.8 kb/s
  79. Count of elements                        : 4291
  80. Stream size                              : 63.8 MiB (0%)
  81. Title                                    : CHS&ENG
  82. Language                                 : Chinese
  83. Default                                  : Yes
  84. Forced                                   : No
  85. Text #3
  86. ID                                       : 5
  87. Format                                   : PGS
  88. Muxing mode                              : zlib
  89. Codec ID                                 : S_HDMV/PGS
  90. Codec ID/Info                            : Picture based subtitle format used on BDs/HD-DVDs
  91. Duration                                 : 2 h 31 min
  92. Bit rate                                 : 57.7 kb/s
  93. Count of elements                        : 4263
  94. Stream size                              : 62.6 MiB (0%)
  95. Title                                    : CHT&ENG
  96. Language                                 : Chinese
  97. Default                                  : Yes
  98. Forced                                   : No
  99. Text #4
  100. ID                                       : 6
  101. Format                                   : PGS
  102. Muxing mode                              : zlib
  103. Codec ID                                 : S_HDMV/PGS
  104. Codec ID/Info                            : Picture based subtitle format used on BDs/HD-DVDs
  105. Duration                                 : 2 h 31 min
  106. Bit rate                                 : 38.2 kb/s
  107. Count of elements                        : 4289
  108. Stream size                              : 41.4 MiB (0%)
  109. Title                                    : CHS
  110. Language                                 : Chinese
  111. Default                                  : Yes
  112. Forced                                   : No
  113. Text #5
  114. ID                                       : 7
  115. Format                                   : PGS
  116. Muxing mode                              : zlib
  117. Codec ID                                 : S_HDMV/PGS
  118. Codec ID/Info                            : Picture based subtitle format used on BDs/HD-DVDs
  119. Duration                                 : 2 h 31 min
  120. Bit rate                                 : 38.6 kb/s
  121. Count of elements                        : 4289
  122. Stream size                              : 41.8 MiB (0%)
  123. Title                                    : CHT
  124. Language                                 : Chinese
  125. Default                                  : Yes
  126. Forced                                   : No
  127. Menu
  128. 00:00:00.000                             : en:第 01 章
  129. 00:07:57.560                             : en:第 02 章
  130. 00:11:36.362                             : en:第 03 章
  131. 00:25:30.070                             : en:第 04 章
  132. 00:35:48.271                             : en:第 05 章
  133. 00:42:56.282                             : en:第 06 章
  134. 00:47:53.788                             : en:第 07 章
  135. 00:54:45.407                             : en:第 08 章
  136. 01:04:51.054                             : en:第 09 章
  137. 01:14:49.026                             : en:第 10 章
  138. 01:25:28.373                             : en:第 11 章
  139. 01:30:44.356                             : en:第 12 章
  140. 01:38:17.975                             : en:第 13 章
  141. 01:44:28.345                             : en:第 14 章
  142. 01:48:09.483                             : en:第 15 章
  143. 02:04:34.425                             : en:第 16 章
  144. 02:08:56.896                             : en:第 17 章
  145. 02:14:12.961                             : en:第 18 章
  146. 02:23:16.922                             : en:第 19 章
  147. 02:29:59.032                             : en:第 20 章
  148. 02:40:40.506                             : en:第 21 章




下载地址:

Jurassic.World.Dominion.2022.Extended.Edition.1080p.BluRay.DTS-X.7.1.x265-10bit-.torrent

BT9527电影天堂 1、BT9527电影天堂提供的BT文件均来源于互联网抓取,只供网友学习交流、技术提升使用。
2、我们遵守BitTorrent点对点协议原则,任何版权问题请联系原资源发布商,我们不处理任何版权纠纷,谢谢!如有争议请联系邮箱:BT9527#hotmail.com(#换成@)
3、如果您发现某页面或地址有错误,请联系站长邮箱BT9527#hotmail.com(#换成@),我们会尽快处理。您的热心是对BT9527电影天堂最大的支持。
4、本站建议去正规影院观看电影以支持电影行业发展。
最新回复 (0)

你可以在 登录 or 注册 后,对此帖发表评论!

返回
发新帖