金钱世界[简繁英字幕].All.the.Money.in.the.World.2017.BluRay.1080p.DTS-HD.MA5.1.x265.10bit-ALT 9.54GB

版主小s 1月前 342

✔资源类型:暂未分类   ✔电影年份:2017   ✔电影地区:欧美   ✔电影分类:剧情

◎标  题 金钱世界
◎译  名 万恶金钱(港) / 世上所有的财富
◎片  名 All the Money in the World
◎年  代 2017
◎产  地 美国 / 意大利 / 英国 / 中国大陆
◎类  别 剧情 / 悬疑 / 传记 / 犯罪
◎语  言 英语 / 意大利语 / 阿拉伯语
◎上映日期 2018-03-02(中国大陆) / 2017-12-25(美国)
◎IMDb评分 6.8/10 (81379人评价)
◎IMDb链接 https://www.imdb.com/title/tt5294550/
◎豆瓣评分 7.0/10 (42057人评价)
◎豆瓣链接 https://movie.douban.com/subject/26995719/
◎片  长 132分钟
◎导  演 雷德利·斯科特 Ridley Scott
◎编  剧 大卫·斯卡尔帕 David Scarpa
       约翰·皮尔逊 John Pearson
◎演  员 米歇尔·威廉姆斯 Michelle Williams
       克里斯托弗·普卢默 Christopher Plummer
       马克·沃尔伯格 Mark Wahlberg
       查理·普拉默 Charlie Plummer
       罗曼·杜里斯 Romain Duris
       蒂莫西·赫顿 Timothy Hutton
       斯塔西·马汀 Stacy Martin
       查理·肖特韦尔 Charlie Shotwell
       安德鲁·巴肯 Andrew Buchan
       马克·莱昂纳蒂 Marco Leonardi
       朱塞佩·博尼法蒂 Giuseppe Bonifati
       尼可拉斯·瓦波里蒂斯 Nicolas Vaporidis
       安德里亚·皮耶迪蒙特·博迪尼 Andrea Piedimonte Bodini
       古列尔莫·法维拉 Guglielmo Favilla
       尼古拉·迪奇欧 Nicola Di Chio
       阿黛尔·蒂兰特 Adele Tirante
       亚历山德拉·罗卡 Alessandra Roca
       弗兰切斯卡·茵奥迪 Francesca Inaudi
       丹尼尔·高斯林 Daniel Gosling
       乔纳森·阿里斯 Jonathan Aris
       加桑·马苏德 Ghassan Massoud
       洛伦佐·佩德罗蒂 Lorenzo Pedrotti
       奥利维亚·马佳纳尼 Olivia Magnani
       吉皮耶罗·朱迪卡 Giampiero Judica
       弗朗西斯科·迪·雷蒙多 Francesco Di Raimondo
       瑞纳萨林 Rainer Sellien
       卢卡·艾瓦伦内 Luca Avallone
       安娜德芙琳 Anna Devlin
       奥利维亚·格兰特 Olivia Grant
       朱利叶斯·贝斯 Giulio Base
       马里奥·欧普特 Mario Opinato
       Charlotte Beckett  Charlotte Beckett
       丹尼尔·彭博顿 Daniel Pemberton
       达瑞兹·沃斯基 Dariusz Wolski

◎标  签 美国 / 犯罪 / 真实事件 / 剧情 / 人性 / 传记 / 2017 / 悬疑

◎简  介
  电影《金钱世界》改编自一起曾轰动世界的豪门绑架事件:世界首富保罗·盖蒂(克里斯托弗·普卢默 饰)之孙遭遇黑帮绑架,绑匪向其母盖尔(米歇尔·威廉姆斯 饰)索要1700万美元赎金,已经与丈夫离婚的盖尔无力支付这笔高昂的赎金,只能向盖蒂家族求救,但富可敌国却无比吝啬的老盖蒂却拒绝为孙子(查理·普拉默 饰)支付赎金,拿不到钱的绑匪丧心病狂的割下了人质的耳朵邮寄给盖蒂家族,心碎的盖尔在前CIA特工弗莱彻·蔡斯(马克·沃尔伯格 饰)的协助下,试图撼动这一僵局,解救自己的儿子……
  1. ##### MediaInfo ######
  2. General
  3. Unique ID                                : 78872472885552633213806445594549453374 (0x3B564925B8637E4EE3CC2F83C9A0823E)
  4. Complete name                            : All.the.Money.in.the.World.2017.BluRay.1080p.DTS-HD.MA5.1.x265.10bit-ALT.mkv
  5. Format                                   : Matroska
  6. Format version                           : Version 4
  7. File size                                : 9.54 GiB
  8. Duration                                 : 2 h 12 min
  9. Overall bit rate mode                    : Variable
  10. Overall bit rate                         : 10.3 Mb/s
  11. Encoded date                             : UTC 2022-08-08 06:58:36
  12. Writing application                      : mkvmerge v49.0.0 ('Sick Of Losing Soulmates') 64-bit
  13. Writing library                          : libebml v1.4.0 + libmatroska v1.6.1
  14. Video
  15. ID                                       : 1
  16. Format                                   : HEVC
  17. Format/Info                              : High Efficiency Video Coding
  18. Format profile                           : Main 10@L5.1@High
  19. Codec ID                                 : V_MPEGH/ISO/HEVC
  20. Duration                                 : 2 h 12 min
  21. Bit rate                                 : 7 820 kb/s
  22. Width                                    : 1 920 pixels
  23. Height                                   : 800 pixels
  24. Display aspect ratio                     : 2.40:1
  25. Frame rate mode                          : Constant
  26. Frame rate                               : 23.976 (24000/1001/53354) FPS
  27. Color space                              : YUV
  28. Chroma subsampling                       : 4:2:0
  29. Bit depth                                : 10 bits
  30. Bits/(Pixel*Frame)                       : 0.212
  31. Stream size                              : 7.25 GiB (76%)
  32. Title                                    : HEVC, x265Main10@L5.1@High, 24/1.001 fps @ 7819 kbps
  33. Writing library                          : x265 3.5+36-1f2c8da77:[Windows][GCC 11.2.0][64 bit] 10bit
  34. Encoding settings                        : cpuid=533541049583 / frame-threads=2 / numa-pools=4 / wpp / no-pmode / no-pme / no-psnr / no-ssim / log-level=2 / input-csp=1 / input-res=1920x800 / interlace=0 / total-frames=190896 / level-idc=51 / high-tier=1 / uhd-bd=0 / ref=5 / no-allow-non-conformance / no-repeat-headers / annexb / no-aud / no-eob / no-eos / no-hrd / info / hash=0 / no-temporal-layers / open-gop / min-keyint=24 / keyint=240 / gop-lookahead=0 / bframes=6 / b-adapt=2 / b-pyramid / bframe-bias=0 / rc-lookahead=40 / lookahead-slices=0 / NTMzNTQ=uuDQuD2mJt9fsCf / scenecut=40 / no-hist-scenecut / radl=0 / no-splice / no-intra-refresh / ctu=32 / min-cu-size=8 / no-rect / no-amp / max-tu-size=32 / tu-inter-depth=3 / tu-intra-depth=3 / limit-tu=4 / rdoq-level=2 / dynamic-rd=0.00 / no-ssim-rd / signhide / no-tskip / nr-intra=0 / nr-inter=0 / no-constrained-intra / no-strong-intra-smoothing / max-merge=4 / limit-refs=1 / limit-modes / me=3 / subme=4 / merange=25 / temporal-mvp / no-frame-dup / no-hme / weightp / weightb / no-analyze-src-pics / deblock=-3:-3 / no-sao / no-sao-non-deblock / rd=6 / selective-sao=0 / no-early-skip / rskip / no-fast-intra / no-tskip-fast / no-cu-lossless / b-intra / no-splitrd-skip / rdpenalty=0 / psy-rd=2.00 / psy-rdoq=1.00 / no-rd-refine / no-lossless / cbqpoffs=-2 / crqpoffs=-2 / rc=crf / crf=17.0 / qcomp=0.65 / qpstep=4 / stats-write=0 / stats-read=0 / vbv-maxrate=80000 / vbv-bufsize=80000 / vbv-init=0.9 / min-vbv-fullness=50.0 / max-vbv-fullness=80.0 / crf-max=0.0 / crf-min=0.0 / ipratio=1.40 / pbratio=1.30 / aq-mode=2 / aq-strength=0.85 / cutree / zone-count=0 / no-strict-cbr / qg-size=32 / no-rc-grain / qpmax=69 / qpmin=0 / no-const-vbv / sar=1 / overscan=0 / videoformat=5 / range=0 / colorprim=1 / transfer=1 / colormatrix=1 / chromaloc=0 / display-window=0 / cll=0,0 / min-luma=0 / max-luma=1023 / log2-max-poc-lsb=8 / vui-timing-info / vui-hrd-info / slices=1 / no-opt-qp-pps / no-opt-ref-list-length-pps / no-multi-pass-opt-rps / scenecut-bias=0.05 / hist-threshold=0.03 / no-opt-cu-delta-qp / no-aq-motion / no-hdr10 / no-hdr10-opt / no-dhdr10-opt / no-idr-recovery-sei / analysis-reuse-level=0 / analysis-save-reuse-level=0 / analysis-load-reuse-level=0 / scale-factor=0 / refine-intra=0 / refine-inter=0 / refine-mv=1 / refine-ctu-distortion=0 / no-limit-sao / ctu-info=0 / no-lowpass-dct / refine-analysis-type=0 / copy-pic=1 / max-ausize-factor=1.0 / no-dynamic-refine / no-single-sei / no-hevc-aq / no-svt / no-field / qp-adaptation-range=1.00 / scenecut-aware-qp=0conformance-window-offsets / right=0 / bottom=0 / NTMzNTQ= / decoder-max-rate=0 / no-vbv-live-multi-pass
  35. Language                                 : English
  36. Default                                  : Yes
  37. Forced                                   : No
  38. Color range                              : Limited
  39. Color primaries                          : BT.709
  40. Transfer characteristics                 : BT.709
  41. Matrix coefficients                      : BT.709
  42. Audio
  43. ID                                       : 2
  44. Format                                   : DTS XLL
  45. Format/Info                              : Digital Theater Systems
  46. Commercial name                          : DTS-HD Master Audio
  47. Codec ID                                 : A_DTS
  48. Duration                                 : 2 h 12 min
  49. Bit rate mode                            : Variable
  50. Bit rate                                 : 2 341 kb/s
  51. Channel(s)                               : 6 channels
  52. Channel layout                           : C L R Ls Rs LFE
  53. Sampling rate                            : 48.0 kHz
  54. Frame rate                               : 93.750 FPS (512 SPF)
  55. Bit depth                                : 16 bits
  56. Compression mode                         : Lossless
  57. Stream size                              : 2.17 GiB (23%)
  58. Title                                    : English DTS-HD Master Audio 5.1 @ 7819 kbps
  59. Language                                 : English
  60. Default                                  : Yes
  61. Forced                                   : No
  62. Text #1
  63. ID                                       : 3
  64. Format                                   : PGS
  65. Codec ID                                 : S_HDMV/PGS
  66. Codec ID/Info                            : Picture based subtitle format used on BDs/HD-DVDs
  67. Duration                                 : 2 h 6 min
  68. Bit rate                                 : 42.7 kb/s
  69. Count of elements                        : 3468
  70. Stream size                              : 38.6 MiB (0%)
  71. Title                                    : Eng/SUP SDH
  72. Language                                 : English
  73. Default                                  : No
  74. Forced                                   : No
  75. Text #2
  76. ID                                       : 4
  77. Format                                   : PGS
  78. Codec ID                                 : S_HDMV/PGS
  79. Codec ID/Info                            : Picture based subtitle format used on BDs/HD-DVDs
  80. Duration                                 : 2 h 3 min
  81. Bit rate                                 : 38.0 kb/s
  82. Count of elements                        : 3008
  83. Stream size                              : 33.5 MiB (0%)
  84. Title                                    : Eng/SUP
  85. Language                                 : English
  86. Default                                  : No
  87. Forced                                   : No
  88. Text #3
  89. ID                                       : 5
  90. Format                                   : PGS
  91. Codec ID                                 : S_HDMV/PGS
  92. Codec ID/Info                            : Picture based subtitle format used on BDs/HD-DVDs
  93. Duration                                 : 2 h 6 min
  94. Bit rate                                 : 28.5 kb/s
  95. Count of elements                        : 3088
  96. Stream size                              : 25.7 MiB (0%)
  97. Title                                    : Chs/SUP  简体
  98. Language                                 : Chinese
  99. Default                                  : Yes
  100. Forced                                   : No
  101. Text #4
  102. ID                                       : 6
  103. Format                                   : PGS
  104. Codec ID                                 : S_HDMV/PGS
  105. Codec ID/Info                            : Picture based subtitle format used on BDs/HD-DVDs
  106. Duration                                 : 2 h 6 min
  107. Bit rate                                 : 29.5 kb/s
  108. Count of elements                        : 3088
  109. Stream size                              : 26.7 MiB (0%)
  110. Title                                    : Cht/SUP  繁体
  111. Language                                 : Chinese
  112. Default                                  : No
  113. Forced                                   : No
  114. Menu
  115. 00:00:00.000                             : en:第 01 章
  116. 00:10:55.113                             : en:第 02 章
  117. 00:19:10.358                             : en:第 03 章
  118. 00:30:35.500                             : en:第 04 章
  119. 00:39:27.907                             : en:第 05 章
  120. 00:48:36.664                             : en:第 06 章
  121. 00:55:26.156                             : en:第 07 章
  122. 01:05:59.164                             : en:第 08 章
  123. 01:15:27.606                             : en:第 09 章
  124. 01:24:42.369                             : en:第 10 章
  125. 01:28:20.587                             : en:第 11 章
  126. 01:34:55.064                             : en:第 12 章
  127. 01:42:14.170                             : en:第 13 章
  128. 01:48:11.485                             : en:第 14 章
  129. 01:56:07.169                             : en:第 15 章
  130. 02:03:08.381                             : en:第 16 章




下载地址:

All.the.Money.in.the.World.2017.BluRay.1080p.DTS-HD.MA5.1.x265.10bit-ALT.torrent

BT9527电影天堂 1、BT9527电影天堂提供的BT文件均来源于互联网抓取,只供网友学习交流、技术提升使用。
2、我们遵守BitTorrent点对点协议原则,任何版权问题请联系原资源发布商,我们不处理任何版权纠纷,谢谢!如有争议请联系邮箱:BT9527#hotmail.com(#换成@)
3、如果您发现某页面或地址有错误,请联系站长邮箱BT9527#hotmail.com(#换成@),我们会尽快处理。您的热心是对BT9527电影天堂最大的支持。
4、本站建议去正规影院观看电影以支持电影行业发展。
最新回复 (0)

你可以在 登录 or 注册 后,对此帖发表评论!

返回
发新帖