冒牌天神[共2部合集][繁英字幕].Bruce.Almighty.Evan.Almighty.2003-2007.BluRay.1080p.DTS-HD.MA5.1.x265.10bit-ALT 16.77GB

版主小s 1月前 195

✔资源类型:暂未分类   ✔电影年份:合 集   ✔电影地区:欧美   ✔电影分类:合集

◎标  题 冒牌天神
◎译  名 衰鬼上帝(港) / 王牌天神(台) / 全能布鲁斯 / 代理上帝 / 命运天神
◎片  名 Bruce Almighty
◎年  代 2003
◎产  地 美国
◎类  别 喜剧 / 奇幻
◎语  言 英语 / 西班牙语
◎上映日期 2003-05-23
◎IMDb评分 6.8/10 (386715人评价)
◎IMDb链接 https://www.imdb.com/title/tt0315327/
◎豆瓣评分 7.6/10 (194358人评价)
◎豆瓣链接 https://movie.douban.com/subject/1297018/
◎片  长 101分钟
◎导  演 汤姆·沙迪亚克 Tom Shadyac
◎编  剧 史蒂夫·科伦 Steve Koren
       马克·奥基夫 Mark O'Keefe
       史蒂夫·欧德科克 Steve Oedekerk
◎演  员 金·凯瑞 Jim Carrey
       摩根·弗里曼 Morgan Freeman
       詹妮弗·安妮斯顿 Jennifer Aniston
       菲利普·贝克·霍尔 Philip Baker Hall
       凯瑟琳·贝尔 Catherine Bell
       丽萨·安·沃尔特 Lisa Ann Walter
       史蒂夫·卡瑞尔 Steve Carell
       诺拉·邓恩 Nora Dunn
       埃迪·杰米森 Eddie Jemison
       保罗·萨特菲尔德 Paul Satterfield
       马克·基利 Mark Kiely
       莎莉·柯克兰德 Sally Kirkland
       托尼·本内特 Tony Bennett
       蒂莫西·迪普里 Timothy Di Pri
       卢·费尔德 Lou Felder
       莉莲·亚当斯 Lillian Adams
       克里斯托弗·达尔加 Christopher Darga
       杰克·乔泽弗森 Jack Jozefson
       马克·阿戴尔-里奥斯 Mark Adair-Rios
       恩里克·阿尔梅达 Enrique Almeida
       诺尔·古格雷米 Noel Gugliemi
       罗兰多·莫利纳 Rolando Molina
       埃米里奥·瑞弗拉 Emilio Rivera
       玛德琳·洛夫乔伊 Madeline Lovejoy
       丹·戴斯蒙德 Dan Desmond
       罗伯特·库蒂斯·布朗 Robert Curtis Brown
       迈克尔·布朗李 Michael Brownlee
       肖恩·罗宾逊 Shaun Robinson
       艾伦·鲁鲁 Allen Lulu
       贾米森·杨 Jamison Yang
       格雷格·科林斯 Greg Collins
       玛丽·帕特·格里森 Mary Pat Gleason
       凯瑞·斯科特 Carey Scott
       布拉德利·斯泰克尔 Bradley Stryker
       当·诺伍德 Dohn Norwood
       迈克尔·奥利佛斯 Michael Olifiers
       亚历克斯·维莱尔 Alex Villiers
       阿若·希利 Ara Celi
       艾莉森·麦考迪 Allison McCurdy
       珍妮尔·皮尔齐娜 Janelle Pierzina
       安妮·沃斯奇 Annie Wersching
       迈卡·威廉姆斯 Micah Williams
       汤姆·贝耶 Tom Beyer
       马克斯·格隆切克 Max Grodénchik
       迈克尔·博夫舍维尔 Michael Bofshever
       寇比·法兰奇 Colby French
       曼尼·苏亚雷斯 Manny Suárez
       唐·多德 Don Dowe
       沙沙维恩·豪尔 Shashawnee Hall
       P·J·伯恩 P.J. Byrne
       约瑟夫·巴特勒 Joseph Buttler
       丽莎·坎格洛西 Lisa Cangelosi
       柯特·克伦德尼 Curt Clendenin
        Catherine Petra Villalobos
       Gary Rodriguez Gary Rodriguez
       基诺·蒙特斯诺斯 Gino Montesinos
       Brian La Rosa Brian La Rosa

◎标  签 喜剧 / 美国 / JimCarrey / 金·凯瑞 / 搞笑 / 美国电影 / 冒牌天神 / 2003

◎简  介
    布鲁斯(金•凯瑞 Jim Carrey 饰)是美国水牛城的一名记者。三十而立的他,不仅没有变得成熟和独立,反而还整天毛手毛脚,弄得自己诸事不顺。布鲁斯还不知自我检讨,总是把一切过错的责任推到别人或上帝身上。还好他的幽默颇受当地观众喜爱,才不致于他被电视台扫地出门。                                    
                                  这天,布鲁斯一醒来就霉运就来了:先是在床上烦躁得睡不着,接着女友做的早餐难吃得要命,跟着家里的狗竟然在沙发上撒尿了……布鲁斯忍无可忍,指着天空没完没了地大骂起上帝对他的不公。                                    
                                  上帝真的被他从天上骂下来了!上帝允许布鲁斯做一天上帝,管理这个世界。兴奋的布鲁斯发现自己真的无所不能了,他开始了自己疯狂的游戏……



  1. 合集文件列表:

  2. 1.Bruce.Almighty.2003.BluRay.1080p.DTS-HD.MA5.1.x265.10bit-ALT.mkv 8.41GB

  3. 2.Evan.Almighty.2007.BluRay.1080p.DTS-HD.MA5.1.x265.10bit-ALT.mkv 8.36GB





  1. ##### MediaInfo ######
  2. General
  3. Unique ID                                : 238101492930104300107179030578160373827 (0xB320ADF3F502102E34853425D17A9043)
  4. Complete name                            : Bruce.Almighty.2003.BluRay.1080p.DTS-HD.MA5.1.x265.10bit-ALT.mkv
  5. Format                                   : Matroska
  6. Format version                           : Version 4
  7. File size                                : 8.41 GiB
  8. Duration                                 : 1 h 41 min
  9. Overall bit rate mode                    : Variable
  10. Overall bit rate                         : 11.9 Mb/s
  11. Encoded date                             : UTC 2021-12-14 06:11:19
  12. Writing application                      : mkvmerge v49.0.0 ('Sick Of Losing Soulmates') 64-bit
  13. Writing library                          : libebml v1.4.0 + libmatroska v1.6.1
  14. Video
  15. ID                                       : 1
  16. Format                                   : HEVC
  17. Format/Info                              : High Efficiency Video Coding
  18. Format profile                           : Main 10@L5.1@High
  19. Codec ID                                 : V_MPEGH/ISO/HEVC
  20. Duration                                 : 1 h 41 min
  21. Bit rate                                 : 9 690 kb/s
  22. Width                                    : 1 920 pixels
  23. Height                                   : 1 080 pixels
  24. Display aspect ratio                     : 16:9
  25. Frame rate mode                          : Constant
  26. Frame rate                               : 23.976 (24000/1001/53354) FPS
  27. Color space                              : YUV
  28. Chroma subsampling                       : 4:2:0
  29. Bit depth                                : 10 bits
  30. Bits/(Pixel*Frame)                       : 0.195
  31. Stream size                              : 6.84 GiB (81%)
  32. Title                                    : HEVC, x265Main10@L5.1@High, 24/1.001 fps @ 9690 kbps
  33. Writing library                          : x265 3.4+14-gd419c7152:[Windows][GCC 10.2.0][64 bit] 10bit
  34. Encoding settings                        : cpuid=533541111039 / frame-threads=4 / numa-pools=16 / wpp / pmode / pme / no-psnr / no-ssim / log-level=2 / input-csp=1 / input-res=1920x1080 / interlace=0 / total-frames=145347 / level-idc=51 / high-tier=1 / uhd-bd=0 / ref=5 / no-allow-non-conformance / no-repeat-headers / annexb / no-aud / no-hrd / info / hash=0 / no-temporal-layers / open-gop / min-keyint=24 / keyint=240 / gop-lookahead=0 / bframes=6 / b-adapt=2 / b-pyramid / bframe-bias=0 / rc-lookahead=40 / lookahead-slices=0 / NTMzNTQ=uuDQuD2mJt9fsCf / scenecut=40 / hist-scenecut=0 / radl=0 / no-splice / no-intra-refresh / ctu=32 / min-cu-size=8 / no-rect / no-amp / max-tu-size=32 / tu-inter-depth=3 / tu-intra-depth=3 / limit-tu=4 / rdoq-level=2 / dynamic-rd=0.00 / no-ssim-rd / signhide / no-tskip / nr-intra=0 / nr-inter=0 / no-constrained-intra / no-strong-intra-smoothing / max-merge=4 / limit-refs=1 / limit-modes / me=3 / subme=4 / merange=25 / temporal-mvp / no-frame-dup / no-hme / weightp / weightb / no-analyze-src-pics / deblock=-3:-3 / no-sao / no-sao-non-deblock / rd=6 / selective-sao=0 / no-early-skip / rskip / no-fast-intra / no-tskip-fast / no-cu-lossless / b-intra / no-splitrd-skip / rdpenalty=0 / psy-rd=2.00 / psy-rdoq=1.00 / no-rd-refine / no-lossless / cbqpoffs=0 / crqpoffs=0 / rc=crf / crf=17.0 / qcomp=0.65 / qpstep=4 / stats-write=0 / stats-read=0 / vbv-maxrate=80000 / vbv-bufsize=80000 / vbv-init=0.9 / crf-max=0.0 / crf-min=0.0 / ipratio=1.40 / pbratio=1.30 / aq-mode=2 / aq-strength=0.85 / cutree / zone-count=0 / no-strict-cbr / qg-size=32 / no-rc-grain / qpmax=69 / qpmin=0 / no-const-vbv / sar=1 / overscan=0 / videoformat=5 / range=0 / colorprim=1 / transfer=1 / colormatrix=1 / chromaloc=0 / display-window=0 / cll=0,0 / min-luma=0 / max-luma=1023 / log2-max-poc-lsb=8 / vui-timing-info / vui-hrd-info / slices=1 / no-opt-qp-pps / no-opt-ref-list-length-pps / no-multi-pass-opt-rps / scenecut-bias=0.05 / hist-threshold=0.03 / no-opt-cu-delta-qp / no-aq-motion / no-hdr10 / no-hdr10-opt / no-dhdr10-opt / no-idr-recovery-sei / analysis-reuse-level=0 / analysis-save-reuse-level=0 / analysis-load-reuse-level=0 / scale-factor=0 / refine-intra=0 / refine-inter=0 / refine-mv=1 / refine-ctu-distortion=0 / no-limit-sao / ctu-info=0 / no-lowpass-dct / refine-analysis-type=0 / copy-pic=1 / max-ausize-factor=1.0 / no-dynamic-refine / no-single-sei / no-hevc-aq / no-svt / no-field / qp-adaptation-range=1.00 / no-scenecut-aware-qpconformance-window-offsets / right=0 / bottom=0 / NTMzNTQ= / decoder-max-rate=0
  35. Language                                 : English
  36. Default                                  : Yes
  37. Forced                                   : No
  38. Color range                              : Limited
  39. Color primaries                          : BT.709
  40. Transfer characteristics                 : BT.709
  41. Matrix coefficients                      : BT.709
  42. Audio
  43. ID                                       : 2
  44. Format                                   : DTS XLL
  45. Format/Info                              : Digital Theater Systems
  46. Commercial name                          : DTS-HD Master Audio
  47. Codec ID                                 : A_DTS
  48. Duration                                 : 1 h 41 min
  49. Bit rate mode                            : Variable
  50. Bit rate                                 : 2 103 kb/s
  51. Channel(s)                               : 6 channels
  52. Channel layout                           : C L R Ls Rs LFE
  53. Sampling rate                            : 48.0 kHz
  54. Frame rate                               : 93.750 FPS (512 SPF)
  55. Bit depth                                : 16 bits
  56. Compression mode                         : Lossless
  57. Stream size                              : 1.48 GiB (18%)
  58. Title                                    : English DTS-HD Master Audio 5.1 @ 2104 kbps
  59. Language                                 : English
  60. Default                                  : Yes
  61. Forced                                   : No
  62. Text #1
  63. ID                                       : 3
  64. Format                                   : PGS
  65. Codec ID                                 : S_HDMV/PGS
  66. Codec ID/Info                            : Picture based subtitle format used on BDs/HD-DVDs
  67. Duration                                 : 1 h 34 min
  68. Bit rate                                 : 40.7 kb/s
  69. Count of elements                        : 2168
  70. Stream size                              : 27.6 MiB (0%)
  71. Title                                    : Eng/SUP
  72. Language                                 : English
  73. Default                                  : No
  74. Forced                                   : No
  75. Text #2
  76. ID                                       : 4
  77. Format                                   : PGS
  78. Codec ID                                 : S_HDMV/PGS
  79. Codec ID/Info                            : Picture based subtitle format used on BDs/HD-DVDs
  80. Duration                                 : 1 h 34 min
  81. Bit rate                                 : 49.7 kb/s
  82. Count of elements                        : 2635
  83. Stream size                              : 33.7 MiB (0%)
  84. Title                                    : Eng/SUP  SDH
  85. Language                                 : English
  86. Default                                  : No
  87. Forced                                   : No
  88. Text #3
  89. ID                                       : 5
  90. Format                                   : PGS
  91. Codec ID                                 : S_HDMV/PGS
  92. Codec ID/Info                            : Picture based subtitle format used on BDs/HD-DVDs
  93. Duration                                 : 1 h 34 min
  94. Bit rate                                 : 35.2 kb/s
  95. Count of elements                        : 2216
  96. Stream size                              : 23.9 MiB (0%)
  97. Title                                    : Cht/SUP  原盘繁体
  98. Language                                 : Chinese
  99. Default                                  : Yes
  100. Forced                                   : No
  101. Menu
  102. 00:00:00.000                             : en:第 01 章
  103. 00:05:46.596                             : en:第 02 章
  104. 00:09:08.256                             : en:第 03 章
  105. 00:13:18.798                             : en:第 04 章
  106. 00:17:22.083                             : en:第 05 章
  107. 00:23:00.921                             : en:第 06 章
  108. 00:25:18.684                             : en:第 07 章
  109. 00:31:40.190                             : en:第 08 章
  110. 00:41:10.968                             : en:第 09 章
  111. 00:47:39.857                             : en:第 10 章
  112. 00:53:03.222                             : en:第 11 章
  113. 00:55:25.489                             : en:第 12 章
  114. 00:57:38.246                             : en:第 13 章
  115. 01:02:43.551                             : en:第 14 章
  116. 01:13:07.300                             : en:第 15 章
  117. 01:19:26.261                             : en:第 16 章
  118. 01:23:41.725                             : en:第 17 章
  119. 01:25:43.597                             : en:第 18 章
  120. 01:29:27.445                             : en:第 19 章
  121. 01:32:38.887                             : en:第 20 章




下载地址:

Bruce.Almighty.Evan.Almighty.2003-2007.BluRay.1080p.DTS-HD.MA5.1.x265.10bit-ALT.torrent

BT9527电影天堂 1、BT9527电影天堂提供的BT文件均来源于互联网抓取,只供网友学习交流、技术提升使用。
2、我们遵守BitTorrent点对点协议原则,任何版权问题请联系原资源发布商,我们不处理任何版权纠纷,谢谢!如有争议请联系邮箱:BT9527#hotmail.com(#换成@)
3、如果您发现某页面或地址有错误,请联系站长邮箱BT9527#hotmail.com(#换成@),我们会尽快处理。您的热心是对BT9527电影天堂最大的支持。
4、本站建议去正规影院观看电影以支持电影行业发展。
最新回复 (0)

你可以在 登录 or 注册 后,对此帖发表评论!

返回
发新帖