波拉特[繁英字幕].Borat.2006.BluRay.1080p.DTS-HD.MA5.1.x265.10bit-ALT 6.98GB

版主小s 1月前 211

✔资源类型:暂未分类   ✔电影年份:2006   ✔电影地区:欧美   ✔电影分类:喜剧

◎标  题 波拉特
◎译  名 波拉特:为了建设伟大的祖国哈萨克斯坦而学习美国文化 / 波叔出城:哈萨克乡下佬去美国搵着数 / 芭乐特:哈萨克青年必修(理)美国文化 / 鲍莱特 / 宝拉西游记 / Borat!
◎片  名 Borat: Cultural Learnings of America for Make Benefit Glorious Nation of Kazakhstan
◎年  代 2006
◎产  地 美国 / 英国
◎类  别 喜剧
◎语  言 英语 / 罗马尼亚语 / 希伯来语 / 波兰语 / 亚美尼亚语
◎上映日期 2006-11-03(美国)
◎IMDb评分 7.3/10 (400783人评价)
◎IMDb链接 https://www.imdb.com/title/tt0443453/
◎豆瓣评分 7.4/10 (52643人评价)
◎豆瓣链接 https://movie.douban.com/subject/1870044/
◎片  长 84 分钟
◎导  演 拉里·查尔斯 Larry Charles
◎编  剧 萨莎·拜伦·科恩 Sacha Baron Cohen
       安东尼·海恩斯 Anthony Hines
       彼得·贝恩汉姆 Peter Baynham
       丹·马泽 Dan Mazer
       托德·菲利普斯 Todd Phillips
◎演  员 萨莎·拜伦·科恩 Sacha Baron Cohen
       肯·戴维蒂安 Ken Davitian
       路奈尔·坎贝尔 Luenell Campell
       帕米拉·安德森 Pamela Anderson
       简·帕雷特 Jean-Pierre Parent
       鲍勃·巴尔 Bob Barr
       艾兰·凯耶斯 Alan Keyes
       萨莎·拜伦·科恩 Sacha Baron Cohen
       杰伊·罗奇 Jay Roach
       丹·马泽 Dan Mazer
       彼得·贝恩汉姆 Peter Baynham
       卢克·盖斯布勒 Luke Geissbuhler
       克雷格·阿尔伯特 Craig Alpert
       Allison Jones Allison Jones
       Jason Alper Jason Alper
       戴尔·斯特恩 Dale Stern
       John Isabeau John Isabeau
        Julia Croon

◎简  介
  电影用讽刺癫狂的手段,展现了哈萨克主播波拉特(萨莎·拜伦·科恩 Sacha Baron Cohen 饰)到美国的一场“文化之旅”。波拉特在哈萨克国内是个排名第六的主持人,擅长用粗俗搞笑的桥段吸引观众眼球。他的家人也有点儿“怪”,妹妹还获得“风尘小姐”的第四名。                                    
                                就是这样一个主持人,被派去了美国进行文化学习,并拍回来一部纪录片。波拉特和制片人在人们的欢送下来到了光怪陆离的美国。他开始学习美国的礼仪,接触美国的文化,然而却处处碰壁,处处闹出笑话。这天波拉特在电视上看到心中的美丽女神,心驰神往,甚至忘记了此行任务……能否学成归国,对于乐不思蜀的波拉特还是未知数呢。
  1. ##### MediaInfo ######
  2. General
  3. Unique ID                                : 266663109565895139814417524103932025102 (0xC89D726004EC4689931A751923E0190E)
  4. Complete name                            : Borat.2006.BluRay.1080p.DTS-HD.MA5.1.x265.10bit-ALT.mkv
  5. Format                                   : Matroska
  6. Format version                           : Version 4
  7. File size                                : 6.98 GiB
  8. Duration                                 : 1 h 23 min
  9. Overall bit rate mode                    : Variable
  10. Overall bit rate                         : 11.9 Mb/s
  11. Movie name                               : Borat (2006)
  12. Encoded date                             : UTC 2022-03-10 04:46:08
  13. Writing application                      : mkvmerge v49.0.0 ('Sick Of Losing Soulmates') 64-bit
  14. Writing library                          : libebml v1.4.0 + libmatroska v1.6.1
  15. Video
  16. ID                                       : 1
  17. Format                                   : HEVC
  18. Format/Info                              : High Efficiency Video Coding
  19. Format profile                           : Main 10@L5.1@High
  20. Codec ID                                 : V_MPEGH/ISO/HEVC
  21. Duration                                 : 1 h 23 min
  22. Bit rate                                 : 8 477 kb/s
  23. Width                                    : 1 920 pixels
  24. Height                                   : 1 040 pixels
  25. Display aspect ratio                     : 1.85:1
  26. Frame rate mode                          : Constant
  27. Frame rate                               : 23.976 (24000/1001/53354) FPS
  28. Color space                              : YUV
  29. Chroma subsampling                       : 4:2:0
  30. Bit depth                                : 10 bits
  31. Bits/(Pixel*Frame)                       : 0.177
  32. Stream size                              : 4.96 GiB (71%)
  33. Writing library                          : x265 3.4+14-gd419c7152:[Windows][GCC 10.2.0][64 bit] 10bit
  34. Encoding settings                        : cpuid=533541111039 / frame-threads=4 / numa-pools=20 / wpp / pmode / pme / no-psnr / no-ssim / log-level=2 / input-csp=1 / input-res=1920x1040 / interlace=0 / total-frames=120553 / level-idc=51 / high-tier=1 / uhd-bd=0 / ref=5 / no-allow-non-conformance / no-repeat-headers / annexb / no-aud / no-hrd / info / hash=0 / no-temporal-layers / open-gop / min-keyint=24 / keyint=240 / gop-lookahead=0 / bframes=6 / b-adapt=2 / b-pyramid / bframe-bias=0 / rc-lookahead=40 / lookahead-slices=0 / NTMzNTQ=uuDQuD2mJt9fsCf / scenecut=40 / hist-scenecut=0 / radl=0 / no-splice / no-intra-refresh / ctu=32 / min-cu-size=8 / no-rect / no-amp / max-tu-size=32 / tu-inter-depth=3 / tu-intra-depth=3 / limit-tu=4 / rdoq-level=2 / dynamic-rd=0.00 / no-ssim-rd / signhide / no-tskip / nr-intra=0 / nr-inter=0 / no-constrained-intra / no-strong-intra-smoothing / max-merge=4 / limit-refs=1 / limit-modes / me=3 / subme=4 / merange=25 / temporal-mvp / no-frame-dup / no-hme / weightp / weightb / no-analyze-src-pics / deblock=-3:-3 / no-sao / no-sao-non-deblock / rd=6 / selective-sao=0 / no-early-skip / rskip / no-fast-intra / no-tskip-fast / no-cu-lossless / b-intra / no-splitrd-skip / rdpenalty=0 / psy-rd=2.00 / psy-rdoq=1.00 / no-rd-refine / no-lossless / cbqpoffs=0 / crqpoffs=0 / rc=crf / crf=18.5 / qcomp=0.65 / qpstep=4 / stats-write=0 / stats-read=0 / vbv-maxrate=80000 / vbv-bufsize=80000 / vbv-init=0.9 / crf-max=0.0 / crf-min=0.0 / ipratio=1.40 / pbratio=1.30 / aq-mode=2 / aq-strength=0.85 / cutree / zone-count=0 / no-strict-cbr / qg-size=32 / no-rc-grain / qpmax=69 / qpmin=0 / no-const-vbv / sar=1 / overscan=0 / videoformat=5 / range=0 / colorprim=1 / transfer=1 / colormatrix=1 / chromaloc=0 / display-window=0 / cll=0,0 / min-luma=0 / max-luma=1023 / log2-max-poc-lsb=8 / vui-timing-info / vui-hrd-info / slices=1 / no-opt-qp-pps / no-opt-ref-list-length-pps / no-multi-pass-opt-rps / scenecut-bias=0.05 / hist-threshold=0.03 / no-opt-cu-delta-qp / no-aq-motion / no-hdr10 / no-hdr10-opt / no-dhdr10-opt / no-idr-recovery-sei / analysis-reuse-level=0 / analysis-save-reuse-level=0 / analysis-load-reuse-level=0 / scale-factor=0 / refine-intra=0 / refine-inter=0 / refine-mv=1 / refine-ctu-distortion=0 / no-limit-sao / ctu-info=0 / no-lowpass-dct / refine-analysis-type=0 / copy-pic=1 / max-ausize-factor=1.0 / no-dynamic-refine / no-single-sei / no-hevc-aq / no-svt / no-field / qp-adaptation-range=1.00 / no-scenecut-aware-qpconformance-window-offsets / right=0 / bottom=0 / NTMzNTQ= / decoder-max-rate=0
  35. Language                                 : English
  36. Default                                  : Yes
  37. Forced                                   : No
  38. Color range                              : Limited
  39. Color primaries                          : BT.709
  40. Transfer characteristics                 : BT.709
  41. Matrix coefficients                      : BT.709
  42. Audio
  43. ID                                       : 2
  44. Format                                   : DTS XLL
  45. Format/Info                              : Digital Theater Systems
  46. Commercial name                          : DTS-HD Master Audio
  47. Codec ID                                 : A_DTS
  48. Duration                                 : 1 h 23 min
  49. Bit rate mode                            : Variable
  50. Bit rate                                 : 3 336 kb/s
  51. Channel(s)                               : 6 channels
  52. Channel layout                           : C L R Ls Rs LFE
  53. Sampling rate                            : 48.0 kHz
  54. Frame rate                               : 93.750 FPS (512 SPF)
  55. Bit depth                                : 24 bits
  56. Compression mode                         : Lossless
  57. Stream size                              : 1.95 GiB (28%)
  58. Title                                    : DTS-HD MA 5.1
  59. Language                                 : English
  60. Default                                  : Yes
  61. Forced                                   : No
  62. Text #1
  63. ID                                       : 3
  64. Format                                   : PGS
  65. Codec ID                                 : S_HDMV/PGS
  66. Codec ID/Info                            : Picture based subtitle format used on BDs/HD-DVDs
  67. Duration                                 : 1 h 23 min
  68. Bit rate                                 : 41.8 kb/s
  69. Count of elements                        : 2315
  70. Stream size                              : 24.9 MiB (0%)
  71. Title                                    : English
  72. Language                                 : English
  73. Default                                  : No
  74. Forced                                   : No
  75. Text #2
  76. ID                                       : 4
  77. Format                                   : PGS
  78. Codec ID                                 : S_HDMV/PGS
  79. Codec ID/Info                            : Picture based subtitle format used on BDs/HD-DVDs
  80. Duration                                 : 1 h 23 min
  81. Bit rate                                 : 30.3 kb/s
  82. Count of elements                        : 2389
  83. Stream size                              : 18.0 MiB (0%)
  84. Title                                    : Chinese (Cantonese)
  85. Language                                 : Chinese
  86. Default                                  : No
  87. Forced                                   : No
  88. Text #3
  89. ID                                       : 5
  90. Format                                   : PGS
  91. Codec ID                                 : S_HDMV/PGS
  92. Codec ID/Info                            : Picture based subtitle format used on BDs/HD-DVDs
  93. Duration                                 : 1 h 23 min
  94. Bit rate                                 : 32.9 kb/s
  95. Count of elements                        : 2387
  96. Stream size                              : 19.6 MiB (0%)
  97. Title                                    : Chinese (Traditional)
  98. Language                                 : Chinese
  99. Default                                  : Yes
  100. Forced                                   : No
  101. Menu
  102. 00:00:00.000                             : en:Village of Kuzcek
  103. 00:03:52.482                             : en:Hobbies and Reportings
  104. 00:06:20.797                             : en:Arrival in New York Citys
  105. 00:10:38.596                             : en:Reportings on Humor
  106. 00:14:12.060                             : en:Pamela and Feminists
  107. 00:17:50.152                             : en:Great News About Wife
  108. 00:19:31.879                             : en:Learning About Automobiles
  109. 00:23:50.220                             : en:Washington Dcs
  110. 00:26:21.205                             : en:Television Appearing
  111. 00:30:03.093                             : en:Rodeo
  112. 00:33:47.567                             : en:Gypsy Treasures and "Wassup Wit It?"
  113. 00:38:02.864                             : en:Nest of Jews
  114. 00:41:27.694                             : en:Protection
  115. 00:43:47.917                             : en:Society Dinner
  116. 00:50:01.373                             : en:Luenell
  117. 00:52:36.653                             : en:Antique Store
  118. 00:55:09.181                             : en:Dispute with Azamat
  119. 00:58:21.331                             : en:Shit Times
  120. 01:01:22.512                             : en:Fraternity Boys
  121. 01:06:58.723                             : en:Mr. Jesus
  122. 01:11:12.059                             : en:California Arrive
  123. 01:13:41.500                             : en:Pamela Marriage Proposal
  124. 01:16:48.521                             : en:Return Kazakhstan
  125. 01:19:02.613                             : en:O Kazakhstan / End Credits


下载地址:

Borat.2006.BluRay.1080p.DTS-HD.MA5.1.x265.10bit-ALT.torrent

BT9527电影天堂 1、BT9527电影天堂提供的BT文件均来源于互联网抓取,只供网友学习交流、技术提升使用。
2、我们遵守BitTorrent点对点协议原则,任何版权问题请联系原资源发布商,我们不处理任何版权纠纷,谢谢!如有争议请联系邮箱:BT9527#hotmail.com(#换成@)
3、如果您发现某页面或地址有错误,请联系站长邮箱BT9527#hotmail.com(#换成@),我们会尽快处理。您的热心是对BT9527电影天堂最大的支持。
4、本站建议去正规影院观看电影以支持电影行业发展。
最新回复 (0)

你可以在 登录 or 注册 后,对此帖发表评论!

返回
发新帖