异形基地[简繁英字幕].Body.Snatchers.1993.BluRay.1080p.DTS-HD.MA5.1.x265.10bit-ALT 5.98GB

版主小s 1月前 262

✔资源类型:暂未分类   ✔电影年份:更 早   ✔电影地区:欧美   ✔电影分类:科幻

◎标  题 异形基地
◎译  名 异形怪客 / 异型基地 / 外星人入侵
◎片  名 Body Snatchers
◎年  代 1993
◎产  地 美国
◎类  别 科幻 / 悬疑 / 惊悚 / 恐怖
◎语  言 英语
◎上映日期 1993-05-15(戛纳电影节) / 1993-06-09(法国) / 1994-02-18(美国)
◎IMDb评分 6/10 (19405人评价)
◎IMDb链接 https://www.imdb.com/title/tt0106452/
◎豆瓣评分 6.2/10 (995人评价)
◎豆瓣链接 https://movie.douban.com/subject/1295404/
◎片  长 87分钟
◎导  演 阿贝尔·费拉拉 Abel Ferrara
◎编  剧 尼古拉斯·圣约翰 Nicholas St. John
       杰克·芬尼 Jack Finney
◎演  员 加布里埃尔·安瓦尔 Gabrielle Anwar
       特里·金尼 Terry Kinney
       比利·沃斯 Billy Wirth
       梅格·提利 Meg Tilly
       福里斯特·惠特克 Forest Whitaker
       菲尔·尼尔森 Phil Neilson
       迈克尔·贾弗 Michael Jaffe
       Joe Delia Joe Delia
       波扬·巴泽里 Bojan Bazelli
       Ferne Cassel Ferne Cassel
       琳达·斯菲里斯 Linda Spheeris
       巴尼·布尔曼 Barney Burman
       托马斯·R·伯曼 Thomas R. Burman
       西德妮·科内尔 Cydney Cornell
       巴里·德雷班德-布尔曼 Bari Dreiband-Burman
       Brian Penikas Brian Penikas
       David Larson David Larson
       Drew Ann Rosenberg Drew Ann Rosenberg
       菲尔·尼尔森 Phil Neilson
       吉姆·丹弗斯 Jim Danforth

◎简  介
  恐怖事件接二连三地在某军事基地发生,外星生物在人们熟睡的时候正大批侵入人体和大脑,进而毁灭人类……玛蒂和弟弟跟随从事环保工作的爸爸来到一个军事基地,调查那里的化学污染情况,恐怖之事从此接踵而来。刚进基地玛蒂就觉得那里的人都很怪异。原来这个基地已被外星来的一种生物所占领。它们趁人们熟睡的时候侵入人的体内和大脑,让他们成为活死人,企图籍此占领所有的军事基地。进而毁灭人类。玛蒂的父母及弟弟都相继被外星生物杀死。玛蒂在飞行员蒂姆的救助下逃出该基地,并在路上炸毁了将外星生物运往其它军事基地的卡车。但除了他们俩之外,又有谁会相信这段经历呢?
  1. ##### MediaInfo ######
  2. General
  3. Unique ID                                : 137000591245276185196486241815839241933 (0x67115AA6CF1A83F20E72F9BA5A39F6CD)
  4. Complete name                            : Body.Snatchers.1993.BluRay.1080p.DTS-HD.MA5.1.x265.10bit-ALT.mkv
  5. Format                                   : Matroska
  6. Format version                           : Version 4
  7. File size                                : 5.98 GiB
  8. Duration                                 : 1 h 27 min
  9. Overall bit rate mode                    : Variable
  10. Overall bit rate                         : 9 822 kb/s
  11. Encoded date                             : UTC 2022-01-25 01:56:16
  12. Writing application                      : mkvmerge v49.0.0 ('Sick Of Losing Soulmates') 64-bit
  13. Writing library                          : libebml v1.4.0 + libmatroska v1.6.1
  14. Video
  15. ID                                       : 1
  16. Format                                   : HEVC
  17. Format/Info                              : High Efficiency Video Coding
  18. Format profile                           : Main 10@L5.1@High
  19. Codec ID                                 : V_MPEGH/ISO/HEVC
  20. Duration                                 : 1 h 27 min
  21. Bit rate                                 : 5 606 kb/s
  22. Width                                    : 1 920 pixels
  23. Height                                   : 800 pixels
  24. Display aspect ratio                     : 2.40:1
  25. Frame rate mode                          : Constant
  26. Frame rate                               : 23.976 (24000/1001/53354) FPS
  27. Color space                              : YUV
  28. Chroma subsampling                       : 4:2:0
  29. Bit depth                                : 10 bits
  30. Bits/(Pixel*Frame)                       : 0.152
  31. Stream size                              : 3.41 GiB (57%)
  32. Title                                    : HEVC, x265Main10@L5.1@High, 24/1.001 fps @ 5606 kbps
  33. Writing library                          : x265 3.4+14-gd419c7152:[Windows][GCC 10.2.0][64 bit] 10bit
  34. Encoding settings                        : cpuid=533541111039 / frame-threads=4 / numa-pools=16 / wpp / pmode / pme / no-psnr / no-ssim / log-level=2 / input-csp=1 / input-res=1920x800 / interlace=0 / total-frames=125353 / level-idc=51 / high-tier=1 / uhd-bd=0 / ref=5 / no-allow-non-conformance / no-repeat-headers / annexb / no-aud / no-hrd / info / hash=0 / no-temporal-layers / open-gop / min-keyint=24 / keyint=240 / gop-lookahead=0 / bframes=6 / b-adapt=2 / b-pyramid / bframe-bias=0 / rc-lookahead=40 / lookahead-slices=0 / NTMzNTQ=uuDQuD2mJt9fsCf / scenecut=40 / hist-scenecut=0 / radl=0 / no-splice / no-intra-refresh / ctu=32 / min-cu-size=8 / no-rect / no-amp / max-tu-size=32 / tu-inter-depth=3 / tu-intra-depth=3 / limit-tu=4 / rdoq-level=2 / dynamic-rd=0.00 / no-ssim-rd / signhide / no-tskip / nr-intra=0 / nr-inter=0 / no-constrained-intra / no-strong-intra-smoothing / max-merge=4 / limit-refs=1 / limit-modes / me=3 / subme=4 / merange=25 / temporal-mvp / no-frame-dup / no-hme / weightp / weightb / no-analyze-src-pics / deblock=-3:-3 / no-sao / no-sao-non-deblock / rd=6 / selective-sao=0 / no-early-skip / rskip / no-fast-intra / no-tskip-fast / no-cu-lossless / b-intra / no-splitrd-skip / rdpenalty=0 / psy-rd=2.00 / psy-rdoq=1.00 / no-rd-refine / no-lossless / cbqpoffs=0 / crqpoffs=0 / rc=crf / crf=17.0 / qcomp=0.65 / qpstep=4 / stats-write=0 / stats-read=0 / vbv-maxrate=80000 / vbv-bufsize=80000 / vbv-init=0.9 / crf-max=0.0 / crf-min=0.0 / ipratio=1.40 / pbratio=1.30 / aq-mode=2 / aq-strength=0.85 / cutree / zone-count=0 / no-strict-cbr / qg-size=32 / no-rc-grain / qpmax=69 / qpmin=0 / no-const-vbv / sar=1 / overscan=0 / videoformat=5 / range=0 / colorprim=1 / transfer=1 / colormatrix=1 / chromaloc=0 / display-window=0 / cll=0,0 / min-luma=0 / max-luma=1023 / log2-max-poc-lsb=8 / vui-timing-info / vui-hrd-info / slices=1 / no-opt-qp-pps / no-opt-ref-list-length-pps / no-multi-pass-opt-rps / scenecut-bias=0.05 / hist-threshold=0.03 / no-opt-cu-delta-qp / no-aq-motion / no-hdr10 / no-hdr10-opt / no-dhdr10-opt / no-idr-recovery-sei / analysis-reuse-level=0 / analysis-save-reuse-level=0 / analysis-load-reuse-level=0 / scale-factor=0 / refine-intra=0 / refine-inter=0 / refine-mv=1 / refine-ctu-distortion=0 / no-limit-sao / ctu-info=0 / no-lowpass-dct / refine-analysis-type=0 / copy-pic=1 / max-ausize-factor=1.0 / no-dynamic-refine / no-single-sei / no-hevc-aq / no-svt / no-field / qp-adaptation-range=1.00 / no-scenecut-aware-qpconformance-window-offsets / right=0 / bottom=0 / NTMzNTQ= / decoder-max-rate=0
  35. Language                                 : English
  36. Default                                  : Yes
  37. Forced                                   : No
  38. Color range                              : Limited
  39. Color primaries                          : BT.709
  40. Transfer characteristics                 : BT.709
  41. Matrix coefficients                      : BT.709
  42. Audio
  43. ID                                       : 2
  44. Format                                   : DTS XLL
  45. Format/Info                              : Digital Theater Systems
  46. Commercial name                          : DTS-HD Master Audio
  47. Codec ID                                 : A_DTS
  48. Duration                                 : 1 h 27 min
  49. Bit rate mode                            : Variable
  50. Bit rate                                 : 4 135 kb/s
  51. Channel(s)                               : 6 channels
  52. Channel layout                           : C L R Ls Rs LFE
  53. Sampling rate                            : 48.0 kHz
  54. Frame rate                               : 93.750 FPS (512 SPF)
  55. Bit depth                                : 24 bits
  56. Compression mode                         : Lossless
  57. Stream size                              : 2.52 GiB (42%)
  58. Title                                    : English DTS-HD Master Audio 5.1 @ 4135 kbps
  59. Language                                 : English
  60. Default                                  : Yes
  61. Forced                                   : No
  62. Text #1
  63. ID                                       : 3
  64. Format                                   : PGS
  65. Codec ID                                 : S_HDMV/PGS
  66. Codec ID/Info                            : Picture based subtitle format used on BDs/HD-DVDs
  67. Duration                                 : 1 h 20 min
  68. Bit rate                                 : 56.1 kb/s
  69. Count of elements                        : 2012
  70. Stream size                              : 32.3 MiB (1%)
  71. Title                                    : Eng/SUP
  72. Language                                 : English
  73. Default                                  : No
  74. Forced                                   : No
  75. Text #2
  76. ID                                       : 4
  77. Format                                   : PGS
  78. Codec ID                                 : S_HDMV/PGS
  79. Codec ID/Info                            : Picture based subtitle format used on BDs/HD-DVDs
  80. Duration                                 : 1 h 20 min
  81. Bit rate                                 : 13.8 kb/s
  82. Count of elements                        : 1408
  83. Stream size                              : 7.96 MiB (0%)
  84. Title                                    : Chs/SUP  简体
  85. Language                                 : Chinese
  86. Default                                  : Yes
  87. Forced                                   : No
  88. Text #3
  89. ID                                       : 5
  90. Format                                   : PGS
  91. Codec ID                                 : S_HDMV/PGS
  92. Codec ID/Info                            : Picture based subtitle format used on BDs/HD-DVDs
  93. Duration                                 : 1 h 20 min
  94. Bit rate                                 : 14.4 kb/s
  95. Count of elements                        : 1408
  96. Stream size                              : 8.26 MiB (0%)
  97. Title                                    : Cht/SUP  繁体
  98. Language                                 : Chinese
  99. Default                                  : No
  100. Forced                                   : No
  101. Menu
  102. 00:00:00.000                             : en:第 01 章
  103. 00:03:58.238                             : en:第 02 章
  104. 00:06:14.708                             : en:第 03 章
  105. 00:11:07.542                             : en:第 04 章
  106. 00:12:34.128                             : en:第 05 章
  107. 00:15:37.687                             : en:第 06 章
  108. 00:18:19.223                             : en:第 07 章
  109. 00:19:44.266                             : en:第 08 章
  110. 00:21:19.445                             : en:第 09 章
  111. 00:24:29.093                             : en:第 10 章
  112. 00:29:00.781                             : en:第 11 章
  113. 00:32:31.366                             : en:第 12 章
  114. 00:36:52.127                             : en:第 13 章
  115. 00:38:46.491                             : en:第 14 章
  116. 00:40:10.158                             : en:第 15 章
  117. 00:41:28.236                             : en:第 16 章
  118. 00:43:23.518                             : en:第 17 章
  119. 00:49:24.211                             : en:第 18 章
  120. 00:50:10.674                             : en:第 19 章
  121. 00:52:52.711                             : en:第 20 章
  122. 00:55:24.988                             : en:第 21 章
  123. 01:01:56.338                             : en:第 22 章
  124. 01:05:35.098                             : en:第 23 章
  125. 01:11:45.218                             : en:第 24 章
  126. 01:14:24.126                             : en:第 25 章
  127. 01:16:53.859                             : en:第 26 章
  128. 01:19:50.703                             : en:第 27 章
  129. 01:21:59.915                             : en:第 28 章
  130. 01:23:44.394                             : en:第 29 章




下载地址:

Body.Snatchers.1993.BluRay.1080p.DTS-HD.MA5.1.x265.10bit-ALT.torrent

BT9527电影天堂 1、BT9527电影天堂提供的BT文件均来源于互联网抓取,只供网友学习交流、技术提升使用。
2、我们遵守BitTorrent点对点协议原则,任何版权问题请联系原资源发布商,我们不处理任何版权纠纷,谢谢!如有争议请联系邮箱:BT9527#hotmail.com(#换成@)
3、如果您发现某页面或地址有错误,请联系站长邮箱BT9527#hotmail.com(#换成@),我们会尽快处理。您的热心是对BT9527电影天堂最大的支持。
4、本站建议去正规影院观看电影以支持电影行业发展。
最新回复 (0)

你可以在 登录 or 注册 后,对此帖发表评论!

返回
发新帖