蓝色海湾[简繁英字幕].Blue.Bayou.2021.BluRay.1080p.DTS-HD.MA5.1.x265.10bit-ALT 15.02GB

版主小s 1月前 188

✔资源类型:暂未分类   ✔电影年份:2021   ✔电影地区:欧美   ✔电影分类:剧情

◎标  题 蓝色海湾
◎译  名 蓝色港湾
◎片  名 Blue Bayou
◎年  代 2021
◎产  地 美国 / 加拿大
◎类  别 剧情
◎语  言 英语
◎上映日期 2021-07-13(戛纳电影节) / 2021-09-17(美国)
◎IMDb评分 7.1/10 (3244人评价)
◎IMDb链接 https://www.imdb.com/title/tt11121664/
◎豆瓣评分 7.6/10 (1452人评价)
◎豆瓣链接 https://movie.douban.com/subject/34856590/
◎片  长 117分钟
◎导  演 全知泰 Justin Chon
◎编  剧 全知泰 Justin Chon
◎演  员 全知泰 Justin Chon
       艾丽西亚·维坎德 Alicia Vikander
       马克·奥布莱恩 Mark O'Brien
       范林丹 Linh Dan Pham
       辛迪妮·科瓦尔斯基 Sydney Kowalske
       沃迪·科蒂斯·霍尔 Vondie Curtis-Hall
       艾莫里·科恩 Emory Cohen
       杰拉尔丁·辛格 Geraldine Singer
       托比·维特拉诺 Toby Vitrano
       雷内尔·吉布斯 Renell Gibbs
       马丁·巴特斯·布拉德福德 Martin Bats Bradford
       吉姆·格里森 Jim Gleason
       西尔维娅·格雷丝·克里姆 Sylvia Grace Crim
       戈登·德克海默 Gordon Dexheimer
       内德·尤瑟夫 Ned Yousef
       Altonio Jackson Altonio Jackson
       Roger Suen Roger Suen
       Matthew Chuang Matthew Chuang
       Ante Cheng Ante Cheng

◎标  签 美国 / 移民 / 剧情 / 2021 / 家庭 / 种族 / 韩国 / 美国电影

◎简  介
  故事讲述了一个典型美国家庭为未来奋斗的感人而普通的故事。                                    
                                韩裔美国人Antonio LeBlanc(全知泰 Justin Chon 饰演)幼年时被收养,并在路易斯安那州某个河口小镇长大成人。如今,他与心爱的Katy(艾丽西亚·维坎德 Alicia Vikander 饰演)成家,共同抚养她与前夫生下的 女儿Jessie。当他努力为家人提供最好的生活时,却得知将被这个自己称之为“家”的国家驱逐。挥之不去的过去将他紧紧束缚。
  1. ##### MediaInfo ######
  2. General
  3. Unique ID                                : 248222787404801829312329909513232465907 (0xBABDF84C4C53F09BD60A7C9BDF3E3FF3)
  4. Complete name                            : Blue.Bayou.2021.BluRay.1080p.DTS-HD.MA5.1.x265.10bit-ALT.mkv
  5. Format                                   : Matroska
  6. Format version                           : Version 4
  7. File size                                : 15.0 GiB
  8. Duration                                 : 1 h 57 min
  9. Overall bit rate mode                    : Variable
  10. Overall bit rate                         : 18.4 Mb/s
  11. Encoded date                             : UTC 2022-01-29 10:45:09
  12. Writing application                      : mkvmerge v49.0.0 ('Sick Of Losing Soulmates') 64-bit
  13. Writing library                          : libebml v1.4.0 + libmatroska v1.6.1
  14. Video
  15. ID                                       : 1
  16. Format                                   : HEVC
  17. Format/Info                              : High Efficiency Video Coding
  18. Format profile                           : Main 10@L5.1@High
  19. Codec ID                                 : V_MPEGH/ISO/HEVC
  20. Duration                                 : 1 h 57 min
  21. Bit rate                                 : 14.5 Mb/s
  22. Width                                    : 1 920 pixels
  23. Height                                   : 1 038 pixels
  24. Display aspect ratio                     : 1.85:1
  25. Frame rate mode                          : Constant
  26. Frame rate                               : 23.976 (24000/1001/53354) FPS
  27. Color space                              : YUV
  28. Chroma subsampling                       : 4:2:0
  29. Bit depth                                : 10 bits
  30. Bits/(Pixel*Frame)                       : 0.304
  31. Stream size                              : 11.9 GiB (79%)
  32. Title                                    : HEVC, x265Main10@L5.1@High, 24/1.001 fps @ 14521 kbps
  33. Writing library                          : x265 3.4+14-gd419c7152:[Windows][GCC 10.2.0][64 bit] 10bit
  34. Encoding settings                        : cpuid=533541111039 / frame-threads=4 / numa-pools=16 / wpp / pmode / pme / no-psnr / no-ssim / log-level=2 / input-csp=1 / input-res=1920x1038 / interlace=0 / total-frames=168312 / level-idc=51 / high-tier=1 / uhd-bd=0 / ref=5 / no-allow-non-conformance / no-repeat-headers / annexb / no-aud / no-hrd / info / hash=0 / no-temporal-layers / open-gop / min-keyint=24 / keyint=240 / gop-lookahead=0 / bframes=6 / b-adapt=2 / b-pyramid / bframe-bias=0 / rc-lookahead=40 / lookahead-slices=0 / NTMzNTQ=uuDQuD2mJt9fsCf / scenecut=40 / hist-scenecut=0 / radl=0 / no-splice / no-intra-refresh / ctu=32 / min-cu-size=8 / no-rect / no-amp / max-tu-size=32 / tu-inter-depth=3 / tu-intra-depth=3 / limit-tu=4 / rdoq-level=2 / dynamic-rd=0.00 / no-ssim-rd / signhide / no-tskip / nr-intra=0 / nr-inter=0 / no-constrained-intra / no-strong-intra-smoothing / max-merge=4 / limit-refs=1 / limit-modes / me=3 / subme=4 / merange=25 / temporal-mvp / no-frame-dup / no-hme / weightp / weightb / no-analyze-src-pics / deblock=-3:-3 / no-sao / no-sao-non-deblock / rd=6 / selective-sao=0 / no-early-skip / rskip / no-fast-intra / no-tskip-fast / no-cu-lossless / b-intra / no-splitrd-skip / rdpenalty=0 / psy-rd=2.00 / psy-rdoq=1.00 / no-rd-refine / no-lossless / cbqpoffs=0 / crqpoffs=0 / rc=crf / crf=19.5 / qcomp=0.65 / qpstep=4 / stats-write=0 / stats-read=0 / vbv-maxrate=80000 / vbv-bufsize=80000 / vbv-init=0.9 / crf-max=0.0 / crf-min=0.0 / ipratio=1.40 / pbratio=1.30 / aq-mode=2 / aq-strength=0.85 / cutree / zone-count=0 / no-strict-cbr / qg-size=32 / no-rc-grain / qpmax=69 / qpmin=0 / no-const-vbv / sar=1 / overscan=0 / videoformat=5 / range=0 / colorprim=1 / transfer=1 / colormatrix=1 / chromaloc=0 / display-window=0 / cll=0,0 / min-luma=0 / max-luma=1023 / log2-max-poc-lsb=8 / vui-timing-info / vui-hrd-info / slices=1 / no-opt-qp-pps / no-opt-ref-list-length-pps / no-multi-pass-opt-rps / scenecut-bias=0.05 / hist-threshold=0.03 / no-opt-cu-delta-qp / no-aq-motion / no-hdr10 / no-hdr10-opt / no-dhdr10-opt / no-idr-recovery-sei / analysis-reuse-level=0 / analysis-save-reuse-level=0 / analysis-load-reuse-level=0 / scale-factor=0 / refine-intra=0 / refine-inter=0 / refine-mv=1 / refine-ctu-distortion=0 / no-limit-sao / ctu-info=0 / no-lowpass-dct / refine-analysis-type=0 / copy-pic=1 / max-ausize-factor=1.0 / no-dynamic-refine / no-single-sei / no-hevc-aq / no-svt / no-field / qp-adaptation-range=1.00 / no-scenecut-aware-qpconformance-window-offsets / right=0 / bottom=0 / NTMzNTQ= / decoder-max-rate=0
  35. Language                                 : English
  36. Default                                  : Yes
  37. Forced                                   : No
  38. Color range                              : Limited
  39. Color primaries                          : BT.709
  40. Transfer characteristics                 : BT.709
  41. Matrix coefficients                      : BT.709
  42. Audio
  43. ID                                       : 2
  44. Format                                   : DTS XLL
  45. Format/Info                              : Digital Theater Systems
  46. Commercial name                          : DTS-HD Master Audio
  47. Codec ID                                 : A_DTS
  48. Duration                                 : 1 h 57 min
  49. Bit rate mode                            : Variable
  50. Bit rate                                 : 3 760 kb/s
  51. Channel(s)                               : 6 channels
  52. Channel layout                           : C L R Ls Rs LFE
  53. Sampling rate                            : 48.0 kHz
  54. Frame rate                               : 93.750 FPS (512 SPF)
  55. Bit depth                                : 24 bits
  56. Compression mode                         : Lossless
  57. Stream size                              : 3.07 GiB (20%)
  58. Title                                    : English DTS-HD Master Audio 5.1 @ 3760 kbps
  59. Language                                 : English
  60. Default                                  : Yes
  61. Forced                                   : No
  62. Text #1
  63. ID                                       : 3
  64. Format                                   : PGS
  65. Codec ID                                 : S_HDMV/PGS
  66. Codec ID/Info                            : Picture based subtitle format used on BDs/HD-DVDs
  67. Duration                                 : 1 h 50 min
  68. Bit rate                                 : 38.0 kb/s
  69. Count of elements                        : 2640
  70. Stream size                              : 30.2 MiB (0%)
  71. Title                                    : Eng/SUP
  72. Language                                 : English
  73. Default                                  : No
  74. Forced                                   : No
  75. Text #2
  76. ID                                       : 4
  77. Format                                   : PGS
  78. Codec ID                                 : S_HDMV/PGS
  79. Codec ID/Info                            : Picture based subtitle format used on BDs/HD-DVDs
  80. Duration                                 : 1 h 50 min
  81. Bit rate                                 : 30.2 kb/s
  82. Count of elements                        : 2347
  83. Stream size                              : 23.9 MiB (0%)
  84. Title                                    : Chs/SUP  简体
  85. Language                                 : Chinese
  86. Default                                  : Yes
  87. Forced                                   : No
  88. Text #3
  89. ID                                       : 5
  90. Format                                   : PGS
  91. Codec ID                                 : S_HDMV/PGS
  92. Codec ID/Info                            : Picture based subtitle format used on BDs/HD-DVDs
  93. Duration                                 : 1 h 50 min
  94. Bit rate                                 : 30.9 kb/s
  95. Count of elements                        : 2347
  96. Stream size                              : 24.5 MiB (0%)
  97. Title                                    : Cht/SUP  繁体
  98. Language                                 : Chinese
  99. Default                                  : No
  100. Forced                                   : No
  101. Menu
  102. 00:00:00.000                             : en:第 01 章
  103. 00:07:05.467                             : en:第 02 章
  104. 00:12:34.879                             : en:第 03 章
  105. 00:20:24.432                             : en:第 04 章
  106. 00:25:17.141                             : en:第 05 章
  107. 00:32:06.341                             : en:第 06 章
  108. 00:40:49.572                             : en:第 07 章
  109. 00:45:32.647                             : en:第 08 章
  110. 00:51:01.976                             : en:第 09 章
  111. 00:54:57.002                             : en:第 10 章
  112. 01:04:24.652                             : en:第 11 章
  113. 01:10:50.246                             : en:第 12 章
  114. 01:18:06.557                             : en:第 13 章
  115. 01:22:05.295                             : en:第 14 章
  116. 01:27:40.422                             : en:第 15 章
  117. 01:30:03.815                             : en:第 16 章
  118. 01:36:57.854                             : en:第 17 章
  119. 01:40:00.786                             : en:第 18 章
  120. 01:44:47.239                             : en:第 19 章
  121. 01:52:44.758                             : en:第 20 章




下载地址:

Blue.Bayou.2021.BluRay.1080p.DTS-HD.MA5.1.x265.10bit-ALT.torrent

BT9527电影天堂 1、BT9527电影天堂提供的BT文件均来源于互联网抓取,只供网友学习交流、技术提升使用。
2、我们遵守BitTorrent点对点协议原则,任何版权问题请联系原资源发布商,我们不处理任何版权纠纷,谢谢!如有争议请联系邮箱:BT9527#hotmail.com(#换成@)
3、如果您发现某页面或地址有错误,请联系站长邮箱BT9527#hotmail.com(#换成@),我们会尽快处理。您的热心是对BT9527电影天堂最大的支持。
4、本站建议去正规影院观看电影以支持电影行业发展。
最新回复 (0)

你可以在 登录 or 注册 后,对此帖发表评论!

返回
发新帖