一切顺利[简繁字幕].Everything.Went.Fine.2021.1080p.BluRay.x264.DTS-CTRLHD 10.74GB

版主小s 1月前 152

✔资源类型:BD-1080P   ✔电影年份:2021   ✔电影地区:其他   ✔电影分类:剧情

◎标  题 一切顺利
◎译  名 天堂计划(台) / Everything Went Fine
◎片  名 Tout s'est bien passé
◎年  代 2021
◎产  地 法国
◎类  别 剧情
◎语  言 法语
◎上映日期 2021-07-07(戛纳电影节) / 2021-09-22(法国)
◎IMDb评分 6.9/10 (1511人评价)
◎IMDb链接 https://www.imdb.com/title/tt12847812/
◎豆瓣评分 7.4/10 (2460人评价)
◎豆瓣链接 https://movie.douban.com/subject/35190036/
◎片  长 113分钟
◎导  演 弗朗索瓦·欧容 François Ozon
◎编  剧 弗朗索瓦·欧容 François Ozon
       菲利普·皮亚佐 Philippe Piazzo
       伊曼纽尔·贝尔南 Emmanuèle Bernheim
◎演  员 苏菲·玛索 Sophie Marceau
       安德烈·杜索里埃 André Dussollier
       热拉尔丁娜·帕亚 Géraldine Pailhas
       夏洛特·兰普林 Charlotte Rampling
       埃里克·卡拉瓦卡 Éric Caravaca
       汉娜·许古拉 Hanna Schygulla
       格莱高利·嘉德波瓦 Grégory Gadebois
       朱迪思·马格里 Judith Magre
       雅各·诺勒 Jacques Nolot
       丹尼尔·梅斯吉什 Daniel Mesguich
       娜塔莉·理查德 Nathalie Richard
       丹妮丝·沙朗 Denise Chalem
       Stéphane Hillel Stéphane Hillel
       Frédéric Siuen Frédéric Siuen
       Aymen Saïdi Aymen Saïdi
       拉明·西索科 Lamine Cissokho

◎简  介
  年过八十的父亲突然中风,艾曼纽在医院和家庭之间来回奔波,要面对罹患帕金森氏症的忧鬱母亲,跟父亲有暧昧关係的昔日情人还时不时跑出来乱。孩提时期的她总因父亲严厉的管教,恨不得将他杀掉,如今父亲竟向她提出请求:“请帮我了结这一切吧!”让她百感交集,陷入两难。面对垂垂老矣、生活已无法自理的父亲,她该帮助他完成杀死自己的心愿吗?                                    
                                改编自《池畔谋杀案》编剧艾曼纽贝尔南的同名小说,讲述她帮助父亲安乐死的亲身经历。安乐死往往牵涉到沉重又複杂的伦理道德与法律问题,在法国名导欧容的笔下却举重若轻,以轻盈叙事和幽默口吻,凝视父女生命中最深切的一段相处时光,细腻描绘为人子女内心的挣扎与不捨。苏菲玛索深情而内敛的演出,让这段悠长的告别更显真挚动人。
  1. ##### MediaInfo ######
  2. General
  3. Unique ID                                : 186864541346829652552495185760840491489 (0x8C94CD33D95F1E7BB42A536488DAA1E1)
  4. Complete name                            : Everything.Went.Fine.2021.1080p.BluRay.x264.DTS-CTRLHD.mkv
  5. Format                                   : Matroska
  6. Format version                           : Version 1
  7. File size                                : 10.7 GiB
  8. Duration                                 : 1 h 52 min
  9. Overall bit rate                         : 13.6 Mb/s
  10. Encoded date                             : UTC 2022-08-06 11:32:12
  11. Writing application                      : mkvmerge v2.2.0 ('Turn It On Again') built on Mar  4 2008 13:20:25
  12. Writing library                          : libebml v0.7.7 + libmatroska v0.8.1
  13. Attachments                              : MSYH.TTF / MSYH_chscht.ttf / MSYHBD.TTF / tahoma.ttf / MSYH.TTF / MSYH_chscht.ttf / MSYHBD.TTF / tahoma.ttf
  14. Video
  15. ID                                       : 1
  16. Format                                   : AVC
  17. Format/Info                              : Advanced Video Codec
  18. Format profile                           : High@L4.1
  19. Format settings                          : CABAC / 4 Ref Frames
  20. Format settings, CABAC                   : Yes
  21. Format settings, Reference frames        : 4 frames
  22. Codec ID                                 : V_MPEG4/ISO/AVC
  23. Duration                                 : 1 h 52 min
  24. Bit rate                                 : 12.0 Mb/s
  25. Width                                    : 1 920 pixels
  26. Height                                   : 1 036 pixels
  27. Display aspect ratio                     : 1.85:1
  28. Frame rate mode                          : Constant
  29. Frame rate                               : 24.000 FPS
  30. Color space                              : YUV
  31. Chroma subsampling                       : 4:2:0
  32. Bit depth                                : 8 bits
  33. Scan type                                : Progressive
  34. Bits/(Pixel*Frame)                       : 0.251
  35. Stream size                              : 9.34 GiB (87%)
  36. Writing library                          : x264 core 133 r2334 a3ac64b
  37. Encoding settings                        : cabac=1 / ref=4 / deblock=1:-3:-3 / analyse=0x3:0x113 / me=umh / subme=11 / psy=1 / psy_rd=1.00:0.00 / mixed_ref=1 / me_range=64 / chroma_me=1 / trellis=2 / 8x8dct=1 / cqm=0 / deadzone=21,11 / fast_pskip=1 / chroma_qp_offset=-4 / threads=36 / lookahead_threads=8 / sliced_threads=0 / nr=0 / decimate=0 / interlaced=0 / NTMzNTQ= / bluray_compat=0 / constrained_intra=0 / bframes=10 / b_pyramid=2 / b_adapt=2 / b_bias=0 / direct=3 / weightb=1 / open_gop=0 / weightp=2 / keyint=250 / keyint_min=24 / NTMzNTQ=uuDQuD2mJt9fsCf / scenecut=40 / intra_refresh=0 / rc=2pass / mbtree=0 / bitrate=12000 / ratetol=1.0 / qcomp=0.60 / qpmin=0 / qpmax=69 / qpstep=4 / cplxblur=20.0 / qblur=0.5 / NTMzNTQ=LmsMAP37EqsCpk / ip_ratio=1.40 / pb_ratio=1.30 / aq=1:0.80
  38. Language                                 : English
  39. Default                                  : Yes
  40. Forced                                   : No
  41. Audio
  42. ID                                       : 2
  43. Format                                   : DTS
  44. Format/Info                              : Digital Theater Systems
  45. Codec ID                                 : A_DTS
  46. Duration                                 : 1 h 52 min
  47. Bit rate mode                            : Constant
  48. Bit rate                                 : 1 509 kb/s
  49. Channel(s)                               : 6 channels
  50. Channel layout                           : C L R Ls Rs LFE
  51. Sampling rate                            : 48.0 kHz
  52. Frame rate                               : 93.750 FPS (512 SPF)
  53. Bit depth                                : 24 bits
  54. Compression mode                         : Lossy
  55. Stream size                              : 1.19 GiB (11%)
  56. Title                                    : 法语
  57. Language                                 : French
  58. Default                                  : Yes
  59. Forced                                   : No
  60. Text #1
  61. ID                                       : 3
  62. Format                                   : ASS
  63. Codec ID                                 : S_TEXT/ASS
  64. Codec ID/Info                            : Advanced Sub Station Alpha
  65. Compression mode                         : Lossless
  66. Title                                    : chs
  67. Language                                 : Chinese
  68. Default                                  : Yes
  69. Forced                                   : No
  70. Text #2
  71. ID                                       : 4
  72. Format                                   : ASS
  73. Codec ID                                 : S_TEXT/ASS
  74. Codec ID/Info                            : Advanced Sub Station Alpha
  75. Compression mode                         : Lossless
  76. Title                                    : cht
  77. Language                                 : Chinese
  78. Default                                  : No
  79. Forced                                   : No




下载地址:

Everything.Went.Fine.2021.1080p.BluRay.x264.DTS-CTRLHD.torrent

BT9527电影天堂 1、BT9527电影天堂提供的BT文件均来源于互联网抓取,只供网友学习交流、技术提升使用。
2、我们遵守BitTorrent点对点协议原则,任何版权问题请联系原资源发布商,我们不处理任何版权纠纷,谢谢!如有争议请联系邮箱:BT9527#hotmail.com(#换成@)
3、如果您发现某页面或地址有错误,请联系站长邮箱BT9527#hotmail.com(#换成@),我们会尽快处理。您的热心是对BT9527电影天堂最大的支持。
4、本站建议去正规影院观看电影以支持电影行业发展。
最新回复 (1)

你可以在 登录 or 注册 后,对此帖发表评论!

返回
发新帖