丛林奇航[国语配音/中文字幕].Jungle.Cruise.2021.4K.WEB-DL.H265.AAC.2Audio-MOMOWEB 12.93GB

版主小s 2月前 207

✔资源类型:暂未分类   ✔电影年份:2021   ✔电影地区:欧美   ✔电影分类:喜剧

◎标  题 丛林奇航
◎译  名 幻险森林奇航(港) / 丛林巡航 / 森林河流之旅
◎片  名 Jungle Cruise
◎年  代 2021
◎产  地 美国
◎类  别 喜剧 / 动作 / 奇幻 / 冒险
◎语  言 英语
◎上映日期 2021年7月30日
◎IMDb评分 6.6/10 (115288人评价)
◎IMDb链接 https://www.imdb.com/title/tt0870154/
◎豆瓣评分 6.4/10 (14107人评价)
◎豆瓣链接 https://movie.douban.com/subject/3692602/
◎片  长 90 分钟
◎导  演 佐米·希尔拉
◎编  剧 迈克尔·格林
       格伦·费卡拉
       约翰·里夸
       约翰·诺维尔
       乔什·高德斯坦
◎演  员 道恩·强森
       艾米莉·布朗特
       埃德加·拉米雷兹
       杰克·怀特霍尔
       杰西·普莱蒙
       保罗·吉亚玛提
       维罗尼卡·法尔孔
       丹尼·罗维拉
       基姆·古铁雷斯
       丹·达根·卡特
       安迪·尼曼
       拉斐尔·亚历杭德罗
       西蒙娜·洛克哈特
       佩德罗·洛佩兹
       马克·阿什沃斯
       艾伦·波普尔顿
       詹姆斯·夸特罗奇
       史蒂芬·邓利维
       罗穆阿尔多·卡斯蒂略
       大卫·伦格尔
       贾斯汀·兰德尔·布鲁克
       布鲁克·杰伊·泰勒
       基思·阿瑟·鲍顿
       詹姆斯·威廉·巴拉德
       瑞安·博兹
       费斯·费伊
       杰伊·古铁雷斯
       约书亚·古铁雷斯
       伊拉娜·古拉尔尼克
       肖恩·麦克布莱德
       凯西·纳尔逊
       艾米丽·玛丽·帕尔默
       詹姆斯·锡德里兹

  1. ##### MediaInfo ######
  2. General
  3. Unique ID                                : 122679343955057597246859259206147914752 (0x5C4B2EA5305C1DBA929590E51EA63C00)
  4. Complete name                            : Jungle.Cruise.2021.4K.WEB-DL.H265.AAC.2Audio-MOMOWEB.mkv
  5. Format                                   : Matroska
  6. Format version                           : Version 4
  7. File size                                : 12.9 GiB
  8. Duration                                 : 2 h 1 min
  9. Overall bit rate                         : 15.3 Mb/s
  10. Encoded date                             : UTC 2022-08-06 14:26:07
  11. Writing application                      : mkvmerge v53.0.0 ('Fool's Gold') 64-bit
  12. Writing library                          : libebml v1.4.1 + libmatroska v1.6.2
  13. Video
  14. ID                                       : 1
  15. Format                                   : HEVC
  16. Format/Info                              : High Efficiency Video Coding
  17. Format profile                           : Main@L5@High
  18. Codec ID                                 : V_MPEGH/ISO/HEVC
  19. Duration                                 : 2 h 1 min
  20. Bit rate                                 : 15.0 Mb/s
  21. Width                                    : 4 096 pixels
  22. Height                                   : 1 706 pixels
  23. Display aspect ratio                     : 2.40:1
  24. Original display aspect ratio            : 2.40:1
  25. Frame rate mode                          : Constant
  26. Frame rate                               : 25.000 FPS
  27. Color space                              : YUV
  28. Chroma subsampling                       : 4:2:0
  29. Bit depth                                : 8 bits
  30. Bits/(Pixel*Frame)                       : 0.086
  31. Stream size                              : 12.7 GiB (98%)
  32. Default                                  : Yes
  33. Forced                                   : No
  34. Color range                              : Limited
  35. Audio #1
  36. ID                                       : 2
  37. Format                                   : AAC LC
  38. Format/Info                              : Advanced Audio Codec Low Complexity
  39. Codec ID                                 : A_AAC-2
  40. Duration                                 : 2 h 1 min
  41. Bit rate                                 : 125 kb/s
  42. Channel(s)                               : 2 channels
  43. Channel layout                           : L R
  44. Sampling rate                            : 48.0 kHz
  45. Frame rate                               : 46.875 FPS (1024 SPF)
  46. Compression mode                         : Lossy
  47. Delay relative to video                  : 5 ms
  48. Stream size                              : 109 MiB (1%)
  49. Title                                    : 英语
  50. Language                                 : English
  51. Default                                  : Yes
  52. Forced                                   : No
  53. Audio #2
  54. ID                                       : 3
  55. Format                                   : AAC LC
  56. Format/Info                              : Advanced Audio Codec Low Complexity
  57. Codec ID                                 : A_AAC-2
  58. Duration                                 : 2 h 1 min
  59. Bit rate                                 : 125 kb/s
  60. Channel(s)                               : 2 channels
  61. Channel layout                           : L R
  62. Sampling rate                            : 48.0 kHz
  63. Frame rate                               : 46.875 FPS (1024 SPF)
  64. Compression mode                         : Lossy
  65. Delay relative to video                  : 5 ms
  66. Stream size                              : 109 MiB (1%)
  67. Title                                    : 普通话
  68. Language                                 : Chinese
  69. Default                                  : No
  70. Forced                                   : No




下载地址:

Jungle.Cruise.2021.4K.WEB-DL.H265.AAC.2Audio-MOMOWEB.torrent

BT9527电影天堂 1、BT9527电影天堂提供的BT文件均来源于互联网抓取,只供网友学习交流、技术提升使用。
2、我们遵守BitTorrent点对点协议原则,任何版权问题请联系原资源发布商,我们不处理任何版权纠纷,谢谢!如有争议请联系邮箱:BT9527#hotmail.com(#换成@)
3、如果您发现某页面或地址有错误,请联系站长邮箱BT9527#hotmail.com(#换成@),我们会尽快处理。您的热心是对BT9527电影天堂最大的支持。
4、本站建议去正规影院观看电影以支持电影行业发展。
最新回复 (0)

你可以在 登录 or 注册 后,对此帖发表评论!

返回
发新帖