幻之光[中文字幕].Maborosi.1995.1080p.BluRay.DD2.0.x265-10bit-BATHD 6.41GB

版主小s 2月前 229

✔资源类型:暂未分类   ✔电影年份:更 早   ✔电影地区:日本   ✔电影分类:剧情

◎标  题 幻之光
◎译  名 特殊家庭 / Illusion / Maborosi / Maboroshi no hikari
◎片  名 幻の光
◎年  代 1995
◎产  地 日本
◎类  别 剧情
◎语  言 日语
◎上映日期 1995-12-09(日本)
◎IMDb评分 7.5/10 (6092人评价)
◎IMDb链接 https://www.imdb.com/title/tt0113725/
◎豆瓣评分 8.2/10 (19711人评价)
◎豆瓣链接 https://movie.douban.com/subject/1306885/
◎片  长 110分钟
◎导  演 是枝裕和 Hirokazu Koreeda
◎编  剧 荻田芳久 Yoshihisa Ogita
       宫本辉 Teru Miyamoto
       是枝裕和 Hirokazu Koreeda
       宮本輝 Teru Miyamoto
◎演  员 江角真纪子 Makiko Esumi
       内藤刚志 Takashi Naitô
       浅野忠信 Tadanobu Asano
       木内绿 Midori Kiuchi
       柄本明 Akira Emoto
       樱睦子 Mutsuko Sakura
       赤井英和 Hidekazu Akai
       市田广美 Hiromi Ichida
       寺田农 Minori Terada
       大杉涟 Ren Ohsugi
       桥本菊子 Kikuko Hashimoto
       吉野纱香 Sayaka Yoshino
       陈明章 Ming Chang Chen
       中堀正夫 Masao Nakabori
       是枝裕和 Hirokazu Koreeda
       Tomoyo Oshima Tomoyo Oshima
       部谷京子 Kyôko Heya

◎简  介
  由美子(江角真纪子饰)小时候,奶奶总是离家出走,执意要从城市回乡下终老,并且有一次一去不返。再后来,由美子结婚生子,过着清贫但是幸福美满的小生活,有一天丈夫郁夫(浅野忠信饰)却意外离去。                                    
                                由美子守寡几年后,带着年幼的儿子远嫁给民雄(内藤刚志饰),那是一处遥远的小村庄,依山傍海。从此过着平稳幸福的简单生活,日复一日。但是在她的心中,一直有个挥不去的疑问埋藏着,她不明白郁夫为什么会自杀。一连串的意外事件让由美子离家出走,来到海边的她苦思不得排遣,民雄追赶来到她身边,回答了由美子挥之不去的疑问。
  1. ##### MediaInfo ######
  2. General
  3. Unique ID                                : 266008279238940190438909259856213455902 (0xC81F54BF4EB36191420301A7CDF8341E)
  4. Complete name                            : Maborosi.1995.1080p.BluRay.DD2.0.x265-10bit-BATHD.mkv
  5. Format                                   : Matroska
  6. Format version                           : Version 4
  7. File size                                : 6.41 GiB
  8. Duration                                 : 1 h 50 min
  9. Overall bit rate                         : 8 282 kb/s
  10. Movie name                               : Maborosi 1995 1080p BluRay DD2.0 x265-10bit-HDS
  11. Encoded date                             : UTC 2022-08-07 02:23:35
  12. Writing application                      : mkvmerge v67.0.0 ('Under Stars') 64-bit
  13. Writing library                          : libebml v1.4.2 + libmatroska v1.6.4
  14. Video
  15. ID                                       : 1
  16. Format                                   : HEVC
  17. Format/Info                              : High Efficiency Video Coding
  18. Format profile                           : Main 10@L5.1@High
  19. Codec ID                                 : V_MPEGH/ISO/HEVC
  20. Duration                                 : 1 h 49 min
  21. Bit rate                                 : 7 966 kb/s
  22. Width                                    : 1 920 pixels
  23. Height                                   : 1 036 pixels
  24. Display aspect ratio                     : 1.85:1
  25. Frame rate mode                          : Constant
  26. Frame rate                               : 23.976 (24000/1001/53354) FPS
  27. Color space                              : YUV
  28. Chroma subsampling                       : 4:2:0
  29. Bit depth                                : 10 bits
  30. Bits/(Pixel*Frame)                       : 0.167
  31. Stream size                              : 6.10 GiB (95%)
  32. Title                                    : @HDSky
  33. Writing library                          : x265 - H.265/HEVC codec
  34. Default                                  : Yes
  35. Forced                                   : No
  36. Audio
  37. ID                                       : 2
  38. Format                                   : AC-3
  39. Format/Info                              : Audio Coding 3
  40. Commercial name                          : Dolby Digital
  41. Codec ID                                 : A_AC3
  42. Duration                                 : 1 h 49 min
  43. Bit rate mode                            : Constant
  44. Bit rate                                 : 384 kb/s
  45. Channel(s)                               : 2 channels
  46. Channel layout                           : L R
  47. Sampling rate                            : 48.0 kHz
  48. Frame rate                               : 31.250 FPS (1536 SPF)
  49. Compression mode                         : Lossy
  50. Stream size                              : 301 MiB (5%)
  51. Title                                    : Japanese
  52. Language                                 : Japanese
  53. Service kind                             : Complete Main
  54. Default                                  : Yes
  55. Forced                                   : No
  56. Text #1
  57. ID                                       : 3
  58. Format                                   : PGS
  59. Muxing mode                              : zlib
  60. Codec ID                                 : S_HDMV/PGS
  61. Codec ID/Info                            : Picture based subtitle format used on BDs/HD-DVDs
  62. Duration                                 : 1 h 50 min
  63. Bit rate                                 : 17.1 kb/s
  64. Count of elements                        : 1404
  65. Stream size                              : 13.5 MiB (0%)
  66. Title                                    : CHS
  67. Language                                 : Chinese
  68. Default                                  : Yes
  69. Forced                                   : No
  70. Text #2
  71. ID                                       : 4
  72. Format                                   : PGS
  73. Muxing mode                              : zlib
  74. Codec ID                                 : S_HDMV/PGS
  75. Codec ID/Info                            : Picture based subtitle format used on BDs/HD-DVDs
  76. Duration                                 : 1 h 50 min
  77. Bit rate                                 : 17.4 kb/s
  78. Count of elements                        : 1404
  79. Stream size                              : 13.8 MiB (0%)
  80. Title                                    : CHT
  81. Language                                 : Chinese
  82. Default                                  : Yes
  83. Forced                                   : No
  84. Menu
  85. 00:00:00.000                             : en:第 01 章
  86. 00:06:13.373                             : en:第 02 章
  87. 00:12:07.977                             : en:第 03 章
  88. 00:18:40.036                             : en:第 04 章
  89. 00:23:23.152                             : en:第 05 章
  90. 00:28:23.702                             : en:第 06 章
  91. 00:36:14.047                             : en:第 07 章
  92. 00:42:46.022                             : en:第 08 章
  93. 00:45:52.792                             : en:第 09 章
  94. 00:50:11.467                             : en:第 10 章
  95. 00:57:46.129                             : en:第 11 章
  96. 01:05:19.749                             : en:第 12 章
  97. 01:12:49.282                             : en:第 13 章
  98. 01:18:38.047                             : en:第 14 章
  99. 01:25:47.267                             : en:第 15 章
  100. 01:32:22.704                             : en:第 16 章
  101. 01:43:08.808                             : en:第 17 章




下载地址:

Maborosi.1995.1080p.BluRay.DD2.0.x265-10bit-BATHD.torrent

BT9527电影天堂 1、BT9527电影天堂提供的BT文件均来源于互联网抓取,只供网友学习交流、技术提升使用。
2、我们遵守BitTorrent点对点协议原则,任何版权问题请联系原资源发布商,我们不处理任何版权纠纷,谢谢!如有争议请联系邮箱:BT9527#hotmail.com(#换成@)
3、如果您发现某页面或地址有错误,请联系站长邮箱BT9527#hotmail.com(#换成@),我们会尽快处理。您的热心是对BT9527电影天堂最大的支持。
4、本站建议去正规影院观看电影以支持电影行业发展。
最新回复 (0)

你可以在 登录 or 注册 后,对此帖发表评论!

返回
发新帖