黄金罗盘[简繁英字幕].The.Golden.Compass.2007.1080p.BluRay.DDP7.1.x264-MOMOHD 12.46GB

版主小s 1天前 95

✔资源类型:BD-1080P   ✔电影年份:2007   ✔电影地区:欧美   ✔电影分类:其他

◎标  题 黄金罗盘
◎译  名 魔幻罗盘(港) / 黑暗物质:黄金罗盘 / 黑暗元素
◎片  名 The Golden Compass
◎年  代 2007
◎产  地 美国 / 英国
◎类  别 家庭 / 奇幻 / 冒险
◎语  言 英语 / 冰岛语 / 俄语 / 法语
◎上映日期 2008-03-28(中国大陆) / 2007-11-27(伦敦首映) / 2007-12-05(英国)
◎IMDb评分 6.1/10 (184330人评价)
◎IMDb链接 https://www.imdb.com/title/tt0385752/
◎豆瓣评分 6.5/10 (81706人评价)
◎豆瓣链接 https://movie.douban.com/subject/1585146/
◎片  长 113 分钟
◎导  演 克里斯·韦兹 Chris Weitz
◎编  剧 克里斯·韦兹 Chris Weitz
       菲利普·普尔曼 Philip Pullman
◎演  员 妮可·基德曼 Nicole Kidman
       丹尼尔·克雷格 Daniel Craig
       达科塔·布鲁·理查兹 Dakota Blue Richards
       伊娃·格林 Eva Green
       山姆·艾里奥特 Sam Elliott
       克里斯托弗·李 Christopher Lee
       弗莱迪·海默 Freddie Highmore
       伊恩·麦克莱恩 Ian McKellen
       克里斯汀·斯科特·托马斯 Kristin Scott Thomas
       凯西·贝茨 Kathy Bates
       山口智子 Tomoko Yamaguchi
       德里克·雅各比 Derek Jacobi
       查理·罗 Charlie Rowe
       伊恩·麦柯肖恩 Ian McShane
       吉姆·卡特 Jim Carter
       哈蒂·莫拉汉 Hattie Morahan
       汤姆·康特奈 Tom Courtenay
       艾略特·科万 Elliot Cowan
       杨亮 Liang Yang
       西蒙·迈克伯尼 Simon McBurney
       杰森·沃特金斯 Jason Watkins
       克莱尔·希金斯 Clare Higgins
       萨姆·霍尔 Sam Hoare
       斯宾塞·怀尔丁 Spencer Wilding
       玛格达·苏班斯基 Magda Szubanski
       Forbes KB Forbes KB
       杰克·谢菲尔德 Jack Shepherd
        Tom Barker
       约翰·贝特 John Bett
        Tim Glanfield
       杰·萨瑟兰 Jay Sutherland
       马克·莫特拉姆 Mark Mottram
       大卫·福尔曼 David Forman
       约翰·福兰克林·罗宾斯 John Franklyn-Robbins
       爱德华·德索萨 Edward de Souza
       Martin Ballantyne Martin Ballantyne
       本·沃克 Ben Walker
       Can Tuncer Can Tuncer
       保罗·韦兹 Paul Weitz
       托比·艾默里奇 Toby Emmerich
       罗伯特·沙耶 Robert Shaye
       马科·奥德斯凯 Mark Ordesky
       Nikolas Korda Nikolas Korda
       Bill Carraro Bill Carraro
       迈克尔·林 Michael Lynne
       伊林·麦瑟尔 Ileen Maisel
       亚历山大·德斯普拉 Alexandre Desplat
       亨利·布拉罕 Henry Braham
       安妮·考特斯 Anne V. Coates
       彼得·霍尼斯 Peter Honess
       凯文·坦特 Kevin Tent
       丹尼斯·加斯纳 Dennis Gassner
       安娜·平诺克 Anna Pinnock
       Richard L. Johnson Richard L. Johnson
       安迪·尼克尔森 Andy Nicholson
       Chris Lowe Chris Lowe
       露丝·迈尔斯 Ruth Myers
       彼得·金 Peter King
       安吉拉·莱文 Angela Levin
       Nikkie Grimshaw Nikkie Grimshaw
       彼得·麦克唐纳德 Peter MacDonald
       维克·阿姆斯特朗 Vic Armstrong
       Fraser Fennell-Ball Fraser Fennell-Ball
       William Dodds William Dodds
       David Daniels David Daniels
       罗伯特·麦克拉克兰 Robert McLachlan
       Edward Brett Edward Brett
       罗布·伯吉斯 Rob Burgess
       迈克尔·L·芬克 Michael L. Fink
       罗伯特·斯特罗姆伯格 Robert Stromberg
       克里斯托弗·埃文斯 Christopher Evans
       克莱格·巴朗 Craig Barron
       Sevendalino Khay Sevendalino Khay
       肯特·休斯顿 Kent Houston
       David A.T. Bowman David A.T. Bowman
       迪伦·科尔 Dylan Cole
       乔纳森·福克纳尔 Jonathan Fawkner
       Daren Horley Daren Horley
       Nick Drew Nick Drew
       马克·琼斯 Marc Jones
       Allen Rose Allen Rose
       马特·福斯特 Matt Foster
       詹姆斯·D·弗莱明 James D. Fleming
       丹·格列齐斯 Dan Trezise
       洛朗·乌格尼奥 Laurent Hugueniot
       Adam Watkins Adam Watkins
       Steven Messing Steven Messing
       Simon Hughes Simon Hughes
       Robin Huffer Robin Huffer
       Mathieu Raynault Mathieu Raynault
       Juan Jesus Garcia Juan Jesus Garcia
       Jason Scott Jason Scott
       Ken Dailey Ken Dailey
       Laurent Cordier Laurent Cordier
       Sue Campbell Sue Campbell
       Yanick Bourgie Yanick Bourgie
       Felix Balbas Felix Balbas
       Dimitri Bakalov Dimitri Bakalov
       Frank Petzold Frank Petzold
       埃里克·德·波尔 Erik De Boer
       麦克斯·丹尼森 Max Dennison
       克拉斯·汉克 Claas Henke
       Justin Hammond Justin Hammond
       Karen Halliwell Karen Halliwell
       布莱恩·吉尔 Bryan Grill
       迈克尔·L·芬克 Michael L. Fink
       Peter Doyle Peter Doyle
       Ditch Doy Ditch Doy
       约翰·保罗·多赫蒂 John Paul Docherty
       史蒂文·贝格 Steven Begg
        Erika Bach
        Tim Pixton
        Tim Pruce
        Seth Brower
        Ian Holland
       克里斯托弗·利尔蒙斯 Christopher Learmonth
        Thomas Müller
       Lee Croft Lee Croft
       Jean-Dominique Fievet Jean-Dominique Fievet
       Radost Yonkova Radost Yonkova
        Andreas Jablonka
        Arslan Elver
       阿德里安·李 Adrian Lee
        Simon J. Allen
        Jonathan Sykes
        Justin Holt
        Graeme Baitz
        Amol Dighe
       罗伯特·罗尔斯 Robert Rowles
       Craig Shoji Craig Shoji
       伊万·莫兰 Ivan Moran
       Ryo Sakaguchi Ryo Sakaguchi
       Leif Einarsson Leif Einarsson
       阿德里安·梅特泽拉尔 Adrian Metzelaar
       克里斯蒂安·曼兹 Christian Manz
       Glenn Cotter Glenn Cotter
       克雷格·巴尔兹利 Craig Bardsley
       帕布罗·格里罗 Pablo Grillo
       萨姆·奥斯伯恩 Sam Osborne
       Alex Cumming Alex Cumming
       Brenton Cottman Brenton Cottman
       Daniel Macarin Daniel Macarin
       Paul Graff Paul Graff
       Richard Mahon Richard Mahon
       麦特·沙姆韦 Matt Shumway
       Matt Jacobs Matt Jacobs
       乔丹·本威克 Jordan Benwick
       迪克·费朗 Deak Ferrand
       Virgil Manning Virgil Manning
       Susan MacLeod Susan MacLeod
       安迪·坎德 Andy Kind
       Matt Johnson Matt Johnson
       本·莫里斯 Ben Morris
       Jonathan Neill Jonathan Neill
       Kate Windibank Kate Windibank
       比尔·凯斯滕豪佛 Bill Westenhofer
       Hanzhi Tang Hanzhi Tang
       Nigel Stone Nigel Stone
       Olivier Sarda Olivier Sarda
       苏·罗 Sue Rowe
       Ken Rogerson Ken Rogerson
       Clare Johanna Downie Clare Johanna Downie
       帕斯卡尔·沙皮伊 Pascal Chappuis
       克里斯坦·泽 Christian Zeh
       Paul Lee Paul Lee
       迈克·奥尼尔 Mike O'Neal
       阿尔特弥斯·奥伊科诺莫波卢 Artemis Oikonomopoulou
       Yoshi DeHerrera Yoshi DeHerrera
       Michael Zavala Michael Zavala
       托尼·艾蒂安 Tony Etienne
       Martin Tardif Martin Tardif
       派迪·伊森 Paddy Eason
       K. Marie Walters K. Marie Walters
       霍尔格·佛斯 Holger Voss
       Aruna Inversin Aruna Inversin
       Ryan Cronin Ryan Cronin
       Bill Houston Ball Bill Houston Ball
       杰弗里·卡斯特·代·奥罗 Jeffrey Castel De Oro
       托尼·巴拉萨 Tony Barraza
       安迪·罗宾逊 Andy Robinson
       Bob Powell Bob Powell
       西里奥·昆塔瓦莱 Sirio Quintavalle
       Kenneth Littleton Kenneth Littleton
       Chris Paizis Chris Paizis
       卡罗·斯卡杜托 Carlo Scaduto
       Mike Meaker Mike Meaker
       Vincent Truitner Vincent Truitner
       Mark R. Wilkins Mark R. Wilkins
       安德里亚斯·曼宁卡 Andreas Maaninka
       丹妮尔·纳达尔 Danielle Nadal
       Johnny Turco Johnny Turco
       Thomas Middleton Thomas Middleton
       James Michael Miller James Michael Miller
       丹·帕特森 Dan Patterson
       Daniel Birnbaum Daniel Birnbaum
       Richard Perry Richard Perry
       黛安·金斯顿 Diane Kingston
       杰森·昆塔纳 Jason Quintana
       杰克·梅缪德斯 Jake Maymudes
       塔拉·沃克 Tara Walker
       吉姆·斯帝尔 Jim Steel
       Ryan Bradley Ryan Bradley
       Amit Dhawal Amit Dhawal
       Brock J. Stearn Brock J. Stearn
       Jorge del Valle Jorge del Valle
       彼得·鲍马尔 Peter Bowmar
       Jeffrey Schaper Jeffrey Schaper
       布赖恩·贝根 Brian Begun
       克里斯托夫·梅兰 Christophe Meslin
       克里斯托弗·米尔斯 Christopher Mills
       Joshua LaCross Joshua LaCross
       安东尼·哈里斯 Anthony Harris

◎标  签 魔幻 / 美国 / 奇幻 / 黄金罗盘 / 美国电影 / NicoleKidman / 电影 / 冒险

◎简  介
  故事发生在一个和我们的地球很相似的世界里,那里人们的灵魂变成灵神跟随自己。莉拉自幼(Dakota Blue Richards 饰)跟随身为约旦大学校长的叔叔一起生活,她热情、勇敢且富有正义心。一天科尔特夫人(nicole kidman 饰)要到北方去,希望莉拉能伴随身边。好奇的莉拉开心地答应。临行前叔叔交给她一个黄金罗盘,告诉她世界上只有一个人能读懂。莉拉从黄金罗盘中不仅能得到所问问题的答案,还了解到了自己的身世之谜。这一路上,科尔特夫人行为诡异,莉拉还发现在特尔特夫人的一份名单上赫然写着自己失踪朋友罗杰的名字!罗杰和其他孩子一样,被诱拐到极北之地成为科学试验品。莉拉找到时机逃跑出来,自己动身前去拯救罗杰……
  1. ##### MediaInfo ######
  2. General
  3. Unique ID                                : 301937355922339829017227281027802207903 (0xE32704FE9B62991FC4B8B5DC8B1A169F)
  4. Complete name                            : The.Golden.Compass.2007.1080p.BluRay.DDP7.1.x264-MOMOHD.mkv
  5. Format                                   : Matroska
  6. Format version                           : Version 4
  7. File size                                : 12.5 GiB
  8. Duration                                 : 1 h 53 min
  9. Overall bit rate                         : 15.7 Mb/s
  10. Encoded date                             : UTC 2022-08-05 14:24:23
  11. Writing application                      : mkvmerge v68.0.0 ('The Curtain') 64-bit
  12. Writing library                          : libebml v1.4.2 + libmatroska v1.6.4
  13. Video
  14. ID                                       : 1
  15. Format                                   : AVC
  16. Format/Info                              : Advanced Video Codec
  17. Format profile                           : High@L4.1
  18. Format settings                          : CABAC / 4 Ref Frames
  19. Format settings, CABAC                   : Yes
  20. Format settings, Reference frames        : 4 frames
  21. Codec ID                                 : V_MPEG4/ISO/AVC
  22. Duration                                 : 1 h 53 min
  23. Bit rate                                 : 14.2 Mb/s
  24. Width                                    : 1 918 pixels
  25. Height                                   : 802 pixels
  26. Display aspect ratio                     : 2.40:1
  27. Frame rate mode                          : Constant
  28. Frame rate                               : 23.976 (24000/1001/53354) FPS
  29. Color space                              : YUV
  30. Chroma subsampling                       : 4:2:0
  31. Bit depth                                : 8 bits
  32. Scan type                                : Progressive
  33. Bits/(Pixel*Frame)                       : 0.385
  34. Stream size                              : 11.2 GiB (90%)
  35. Writing library                          : x264 core 164 r3075+55M 97d28bb t_mod_New [(8 & 10)-bit@all X86_64]
  36. Encoding settings                        : cabac=1 / ref=1 / deblock=1:-3:-3 / analyse=0x3:0x113 / me=umh / subme=11 / psy=1 / fade_compensate=0.00 / psy_rd=1.02:0.00 / mixed_ref=0 / me_range=32 / chroma_me=1 / trellis=2 / 8x8dct=1 / cqm=0 / deadzone=21,11 / fast_pskip=0 / chroma_qp_offset=-2 / threads=18 / lookahead_threads=4 / sliced_threads=0 / nr=0 / decimate=0 / interlaced=0 / NTMzNTQ= / bluray_compat=0 / constrained_intra=0 / fgo=0 / bframes=16 / b_pyramid=2 / b_adapt=2 / b_bias=0 / direct=3 / weightb=1 / open_gop=0 / weightp=1 / keyint=250 / keyint_min=23 / NTMzNTQ=uuDQuD2mJt9fsCf / scenecut=40 / intra_refresh=0 / rc_lookahead=250 / rc=crf / mbtree=0 / crf=16.0000 / qcomp=0.60 / qpmin=0:0:0 / qpmax=69:69:69 / qpstep=4 / vbv_maxrate=62500 / vbv_bufsize=78125 / crf_max=0.0 / nal_hrd=none / filler=0 / NTMzNTQ=LmsMAP37EqsCpk / ip_ratio=1.30 / pb_ratio=1.20 / aq=3:0.68 / aq-sensitivity=10.00 / aq-factor=1.00:1.00:1.00 / aq2=0 / aq3=0
  37. Default                                  : Yes
  38. Forced                                   : No
  39. Color range                              : Limited
  40. Color primaries                          : BT.709
  41. Matrix coefficients                      : BT.709
  42. Audio
  43. ID                                       : 2
  44. Format                                   : E-AC-3
  45. Format/Info                              : Enhanced AC-3
  46. Commercial name                          : Dolby Digital Plus
  47. Format profile                           : Blu-ray Disc
  48. Codec ID                                 : A_EAC3
  49. Duration                                 : 1 h 53 min
  50. Bit rate mode                            : Constant
  51. Bit rate                                 : 1 536 kb/s
  52. Channel(s)                               : 8 channels
  53. Channel layout                           : L R C LFE Ls Rs Lb Rb
  54. Sampling rate                            : 48.0 kHz
  55. Frame rate                               : 31.250 FPS (1536 SPF)
  56. Compression mode                         : Lossy
  57. Stream size                              : 1.22 GiB (10%)
  58. Language                                 : English
  59. Service kind                             : Complete Main
  60. Default                                  : Yes
  61. Forced                                   : No
  62. Text #1
  63. ID                                       : 3
  64. Format                                   : ASS
  65. Codec ID                                 : S_TEXT/ASS
  66. Codec ID/Info                            : Advanced Sub Station Alpha
  67. Duration                                 : 1 h 45 min
  68. Bit rate                                 : 69 b/s
  69. Count of elements                        : 1299
  70. Compression mode                         : Lossless
  71. Stream size                              : 54.1 KiB (0%)
  72. Title                                    : Simplified Chinese
  73. Language                                 : Chinese
  74. Default                                  : No
  75. Forced                                   : No
  76. Text #2
  77. ID                                       : 4
  78. Format                                   : ASS
  79. Codec ID                                 : S_TEXT/ASS
  80. Codec ID/Info                            : Advanced Sub Station Alpha
  81. Duration                                 : 1 h 45 min
  82. Bit rate                                 : 69 b/s
  83. Count of elements                        : 1299
  84. Compression mode                         : Lossless
  85. Stream size                              : 54.1 KiB (0%)
  86. Title                                    : Traditional Chinese
  87. Language                                 : Chinese
  88. Default                                  : No
  89. Forced                                   : No
  90. Text #3
  91. ID                                       : 5
  92. Format                                   : UTF-8
  93. Codec ID                                 : S_TEXT/UTF8
  94. Codec ID/Info                            : UTF-8 Plain Text
  95. Duration                                 : 1 h 53 min
  96. Bit rate                                 : 57 b/s
  97. Count of elements                        : 1680
  98. Stream size                              : 47.5 KiB (0%)
  99. Language                                 : English
  100. Default                                  : No
  101. Forced                                   : No
  102. Menu
  103. 00:00:00.000                             : :Chapter01
  104. 00:04:40.822                             : :Chapter02
  105. 00:08:52.532                             : :Chapter03
  106. 00:13:05.702                             : :Chapter04
  107. 00:18:58.596                             : :Chapter05
  108. 00:21:58.943                             : :Chapter06
  109. 00:29:15.587                             : :Chapter07
  110. 00:33:41.269                             : :Chapter08
  111. 00:39:41.170                             : :Chapter09
  112. 00:45:29.644                             : :Chapter10
  113. 00:48:13.641                             : :Chapter11
  114. 00:54:01.822                             : :Chapter12
  115. 00:59:55.550                             : :Chapter13
  116. 01:08:10.044                             : :Chapter14
  117. 01:14:12.114                             : :Chapter15
  118. 01:21:31.678                             : :Chapter16
  119. 01:24:43.829                             : :Chapter17
  120. 01:33:26.059                             : :Chapter18
  121. 01:39:27.211                             : :Chapter19
  122. 01:43:08.974                             : :Chapter20




下载地址:

The.Golden.Compass.2007.1080p.BluRay.DDP7.1.x264-MOMOHD.torrent

BT9527电影天堂 1、BT9527电影天堂提供的BT文件均来源于互联网抓取,只供网友学习交流、技术提升使用。
2、我们遵守BitTorrent点对点协议原则,任何版权问题请联系原资源发布商,我们不处理任何版权纠纷,谢谢!如有争议请联系邮箱:BT9527#hotmail.com(#换成@)
3、如果您发现某页面或地址有错误,请联系站长邮箱BT9527#hotmail.com(#换成@),我们会尽快处理。您的热心是对BT9527电影天堂最大的支持。
4、本站建议去正规影院观看电影以支持电影行业发展。
最新回复 (0)

你可以在 登录 or 注册 后,对此帖发表评论!

返回
发新帖