寂静人生[简繁英字幕].Still.Life.2013.BluRay.1080p.TrueHD.5.1.x265.10bit-ALT 7.41GB

版主小s 1天前 70

✔资源类型:暂未分类   ✔电影年份:2013   ✔电影地区:欧美   ✔电影分类:剧情

◎标  题 寂静人生
◎译  名 继续活着 / 无人出席的告別式
◎片  名 Still Life
◎年  代 2013
◎产  地 英国 / 意大利
◎类  别 剧情
◎语  言 英语
◎上映日期 2013-09-03(威尼斯电影节)
◎IMDb评分 7.4/10 (7812人评价)
◎IMDb链接 https://www.imdb.com/title/tt2395417/
◎豆瓣评分 9.0/10 (29293人评价)
◎豆瓣链接 https://movie.douban.com/subject/10755367/
◎片  长 92分钟
◎导  演 乌贝托·帕索里尼 Uberto Pasolini
◎编  剧 乌贝托·帕索里尼 Uberto Pasolini
◎演  员 埃迪·马森 Eddie Marsan
       琼安·弗洛加特 Joanne Froggatt
       安德鲁·巴肯 Andrew Buchan
       迈克尔·埃尔金 Michael Elkin
       保罗·安德森 Paul Anderson
       布隆森·韦伯 Bronson Webb
       Wayne Foskett Wayne Foskett
       赫柏·贝尔德索尔 Hebe Beardsall
       汉娜·布拉米雷斯 Hannah Blamires
       克里斯·考林 Chris Cowlin
       Nigel Genis Nigel Genis
       李·尼古拉斯·哈里斯 Lee Nicholas Harris
       理查德·赫德曼 Richard Herdman
       伊恩·曼 Ian Mann
       巴恩纳比·萨斯科贝 Barnaby Southcombe
       蕾切尔·波特曼 Rachel Portman

◎标  签 人生 / 文艺 / 英国 / 静态生活 / 人性 / 剧情 / 英国电影 / 电影

◎简  介
  第70届威尼斯电影节(2013)地平线单元最佳导演奖获奖作品,乌贝托·帕索里尼导演。约翰是一个普通的社会服务员,他的工作是为孤单死去的逝者寻找相关亲人,而当他被告知即将被政府裁员后,他决定将最后一位死者的亲友全部找齐……
  1. ##### MediaInfo ######
  2. General
  3. Unique ID                                : 256507492619519710377763711930206908191 (0xC0F98BCD2E4F8A16908D655497B9EF1F)
  4. Complete name                            : Still.Life.2013.BluRay.1080p.TrueHD.5.1.x265.10bit-ALT.mkv
  5. Format                                   : Matroska
  6. Format version                           : Version 4
  7. File size                                : 7.41 GiB
  8. Duration                                 : 1 h 31 min
  9. Overall bit rate mode                    : Variable
  10. Overall bit rate                         : 11.6 Mb/s
  11. Encoded date                             : UTC 2022-08-06 02:35:43
  12. Writing application                      : mkvmerge v49.0.0 ('Sick Of Losing Soulmates') 64-bit
  13. Writing library                          : libebml v1.4.0 + libmatroska v1.6.1
  14. Video
  15. ID                                       : 1
  16. Format                                   : HEVC
  17. Format/Info                              : High Efficiency Video Coding
  18. Format profile                           : Main 10@L5.1@High
  19. Codec ID                                 : V_MPEGH/ISO/HEVC
  20. Duration                                 : 1 h 31 min
  21. Bit rate                                 : 6 999 kb/s
  22. Width                                    : 1 920 pixels
  23. Height                                   : 1 036 pixels
  24. Display aspect ratio                     : 1.85:1
  25. Frame rate mode                          : Constant
  26. Frame rate                               : 23.976 (24000/1001/53354) FPS
  27. Color space                              : YUV
  28. Chroma subsampling                       : 4:2:0
  29. Bit depth                                : 10 bits
  30. Bits/(Pixel*Frame)                       : 0.147
  31. Stream size                              : 4.48 GiB (60%)
  32. Title                                    : HEVC, x265Main10@L5.1@High, 24/1.001 fps @ 6999 kbps
  33. Writing library                          : x265 3.5+36-1f2c8da77:[Windows][GCC 11.2.0][64 bit] 10bit
  34. Encoding settings                        : cpuid=533541111039 / frame-threads=4 / numa-pools=16 / wpp / no-pmode / no-pme / no-psnr / no-ssim / log-level=2 / input-csp=1 / input-res=1920x1036 / interlace=0 / total-frames=131964 / level-idc=51 / high-tier=1 / uhd-bd=0 / ref=5 / no-allow-non-conformance / no-repeat-headers / annexb / no-aud / no-eob / no-eos / no-hrd / info / hash=0 / no-temporal-layers / open-gop / min-keyint=24 / keyint=240 / gop-lookahead=0 / bframes=6 / b-adapt=2 / b-pyramid / bframe-bias=0 / rc-lookahead=40 / lookahead-slices=0 / NTMzNTQ=uuDQuD2mJt9fsCf / scenecut=40 / no-hist-scenecut / radl=0 / no-splice / no-intra-refresh / ctu=32 / min-cu-size=8 / no-rect / no-amp / max-tu-size=32 / tu-inter-depth=3 / tu-intra-depth=3 / limit-tu=4 / rdoq-level=2 / dynamic-rd=0.00 / no-ssim-rd / signhide / no-tskip / nr-intra=0 / nr-inter=0 / no-constrained-intra / no-strong-intra-smoothing / max-merge=4 / limit-refs=1 / limit-modes / me=3 / subme=4 / merange=25 / temporal-mvp / no-frame-dup / no-hme / weightp / weightb / no-analyze-src-pics / deblock=-3:-3 / no-sao / no-sao-non-deblock / rd=6 / selective-sao=0 / no-early-skip / rskip / no-fast-intra / no-tskip-fast / no-cu-lossless / b-intra / no-splitrd-skip / rdpenalty=0 / psy-rd=2.00 / psy-rdoq=1.00 / no-rd-refine / no-lossless / cbqpoffs=-2 / crqpoffs=-2 / rc=crf / crf=17.0 / qcomp=0.65 / qpstep=4 / stats-write=0 / stats-read=0 / vbv-maxrate=80000 / vbv-bufsize=80000 / vbv-init=0.9 / min-vbv-fullness=50.0 / max-vbv-fullness=80.0 / crf-max=0.0 / crf-min=0.0 / ipratio=1.40 / pbratio=1.30 / aq-mode=2 / aq-strength=0.85 / cutree / zone-count=0 / no-strict-cbr / qg-size=32 / no-rc-grain / qpmax=69 / qpmin=0 / no-const-vbv / sar=1 / overscan=0 / videoformat=5 / range=0 / colorprim=1 / transfer=1 / colormatrix=1 / chromaloc=0 / display-window=0 / cll=0,0 / min-luma=0 / max-luma=1023 / log2-max-poc-lsb=8 / vui-timing-info / vui-hrd-info / slices=1 / no-opt-qp-pps / no-opt-ref-list-length-pps / no-multi-pass-opt-rps / scenecut-bias=0.05 / hist-threshold=0.03 / no-opt-cu-delta-qp / no-aq-motion / no-hdr10 / no-hdr10-opt / no-dhdr10-opt / no-idr-recovery-sei / analysis-reuse-level=0 / analysis-save-reuse-level=0 / analysis-load-reuse-level=0 / scale-factor=0 / refine-intra=0 / refine-inter=0 / refine-mv=1 / refine-ctu-distortion=0 / no-limit-sao / ctu-info=0 / no-lowpass-dct / refine-analysis-type=0 / copy-pic=1 / max-ausize-factor=1.0 / no-dynamic-refine / no-single-sei / no-hevc-aq / no-svt / no-field / qp-adaptation-range=1.00 / scenecut-aware-qp=0conformance-window-offsets / right=0 / bottom=0 / NTMzNTQ= / decoder-max-rate=0 / no-vbv-live-multi-pass
  35. Language                                 : English
  36. Default                                  : Yes
  37. Forced                                   : No
  38. Color range                              : Limited
  39. Color primaries                          : BT.709
  40. Transfer characteristics                 : BT.709
  41. Matrix coefficients                      : BT.709
  42. Audio #1
  43. ID                                       : 2
  44. Format                                   : MLP FBA
  45. Format/Info                              : Meridian Lossless Packing FBA
  46. Commercial name                          : Dolby TrueHD
  47. Codec ID                                 : A_TRUEHD
  48. Duration                                 : 1 h 31 min
  49. Bit rate mode                            : Variable
  50. Bit rate                                 : 3 808 kb/s
  51. Maximum bit rate                         : 4 908 kb/s
  52. Channel(s)                               : 6 channels
  53. Channel layout                           : L R C LFE Ls Rs
  54. Sampling rate                            : 96.0 kHz
  55. Frame rate                               : 1 200.000 FPS (80 SPF)
  56. Compression mode                         : Lossless
  57. Stream size                              : 2.44 GiB (33%)
  58. Title                                    : English Dolby TrueHD 5.1 @ 3808 kbps
  59. Language                                 : English
  60. Default                                  : Yes
  61. Forced                                   : No
  62. Audio #2
  63. ID                                       : 3
  64. Format                                   : AC-3
  65. Format/Info                              : Audio Coding 3
  66. Commercial name                          : Dolby Digital
  67. Codec ID                                 : A_AC3
  68. Duration                                 : 1 h 31 min
  69. Bit rate mode                            : Constant
  70. Bit rate                                 : 640 kb/s
  71. Channel(s)                               : 6 channels
  72. Channel layout                           : L R C LFE Ls Rs
  73. Sampling rate                            : 48.0 kHz
  74. Frame rate                               : 31.250 FPS (1536 SPF)
  75. Compression mode                         : Lossy
  76. Stream size                              : 420 MiB (6%)
  77. Title                                    : English Dolby Digital Audio 5.1 @ 640 kbps
  78. Language                                 : English
  79. Service kind                             : Complete Main
  80. Default                                  : No
  81. Forced                                   : No
  82. Text #1
  83. ID                                       : 4
  84. Format                                   : PGS
  85. Codec ID                                 : S_HDMV/PGS
  86. Codec ID/Info                            : Picture based subtitle format used on BDs/HD-DVDs
  87. Duration                                 : 1 h 16 min
  88. Bit rate                                 : 22.0 kb/s
  89. Count of elements                        : 1178
  90. Stream size                              : 12.1 MiB (0%)
  91. Title                                    : Eng/SUP
  92. Language                                 : English
  93. Default                                  : No
  94. Forced                                   : No
  95. Text #2
  96. ID                                       : 5
  97. Format                                   : PGS
  98. Codec ID                                 : S_HDMV/PGS
  99. Codec ID/Info                            : Picture based subtitle format used on BDs/HD-DVDs
  100. Duration                                 : 1 h 26 min
  101. Bit rate                                 : 17.2 kb/s
  102. Count of elements                        : 1339
  103. Stream size                              : 10.7 MiB (0%)
  104. Title                                    : Chs/SUP  简体
  105. Language                                 : Chinese
  106. Default                                  : Yes
  107. Forced                                   : No
  108. Text #3
  109. ID                                       : 6
  110. Format                                   : PGS
  111. Codec ID                                 : S_HDMV/PGS
  112. Codec ID/Info                            : Picture based subtitle format used on BDs/HD-DVDs
  113. Duration                                 : 1 h 26 min
  114. Bit rate                                 : 19.7 kb/s
  115. Count of elements                        : 1339
  116. Stream size                              : 12.2 MiB (0%)
  117. Title                                    : Cht/SUP  繁体
  118. Language                                 : Chinese
  119. Default                                  : No
  120. Forced                                   : No
  121. Menu
  122. 00:00:00.000                             : en:第 01 章
  123. 00:12:01.012                             : en:第 02 章
  124. 00:20:06.497                             : en:第 03 章
  125. 00:27:50.419                             : en:第 04 章
  126. 00:36:26.476                             : en:第 05 章
  127. 00:47:07.950                             : en:第 06 章
  128. 00:54:43.780                             : en:第 07 章
  129. 01:04:26.029                             : en:第 08 章
  130. 01:13:12.680                             : en:第 09 章
  131. 01:21:09.656                             : en:第 10 章




下载地址:

Still.Life.2013.BluRay.1080p.TrueHD.5.1.x265.10bit-ALT.torrent

BT9527电影天堂 1、BT9527电影天堂提供的BT文件均来源于互联网抓取,只供网友学习交流、技术提升使用。
2、我们遵守BitTorrent点对点协议原则,任何版权问题请联系原资源发布商,我们不处理任何版权纠纷,谢谢!如有争议请联系邮箱:BT9527#hotmail.com(#换成@)
3、如果您发现某页面或地址有错误,请联系站长邮箱BT9527#hotmail.com(#换成@),我们会尽快处理。您的热心是对BT9527电影天堂最大的支持。
4、本站建议去正规影院观看电影以支持电影行业发展。
最新回复 (0)

你可以在 登录 or 注册 后,对此帖发表评论!

返回
发新帖