天知道[简繁英字幕].Heaven.Knows.What.2014.1080p.BluRay.FLAC2.0.x264-MOMOHD 14.17GB

版主小s 1天前 59

✔资源类型:BD-1080P   ✔电影年份:2014   ✔电影地区:欧美   ✔电影分类:剧情

◎标  题 天知道
◎译  名 又毒又爱(港) / 超天堂快感(台) / Mad Love in New York
◎片  名 Heaven Knows What
◎年  代 2014
◎产  地 美国
◎类  别 剧情
◎语  言 英语 / 西班牙语
◎上映日期 2014-08-29(威尼斯电影节)
◎IMDb评分 6.8/10 (7650人评价)
◎IMDb链接 https://www.imdb.com/title/tt3687186/
◎豆瓣评分 7.3/10 (1883人评价)
◎豆瓣链接 https://movie.douban.com/subject/25934367/
◎片  长 97分钟
◎导  演 本·萨弗迪 Ben Safdie
       约书亚·萨弗迪 Joshua Safdie
◎编  剧 约书亚·萨弗迪 Joshua Safdie
       罗纳德·布隆斯坦 Ronald Bronstein
       阿莉尔·霍尔姆斯 Arielle Holmes
◎演  员 阿莉尔·霍尔姆斯 Arielle Holmes
       卡赖伯·兰德里·琼斯 Caleb Landry Jones
       内可罗 Necro
       巴迪·杜瑞斯 Buddy Duress
       塞巴斯蒂安·贝尔-麦克拉德 Sebastian Bear-McClard

◎标  签 美国 / 萨弗迪兄弟 / 2014 / 剧情 / 爱情 / 美国电影 / 2010s / 法国

◎简  介
    公园长凳、酒吧厕所、空屋废墟,纽约街头就是哈莉的家;只要一包白粉、一个针筒、一次注射,哈莉就可以上天堂。伊利亚的出现,为她无可救药的毒虫人生带来炙热光芒,然而血淋淋的窒息爱恋、无穷尽的毒品需求,耗损着两人世界,宛若急速冲向悬崖,狠狠坠地。爱与痛同源,没有模糊地带。这毁灭性的人生,唯有毒品可以证明自己存在。改编自女主角艾瑞儿荷姆斯的真实故事,导演萨弗迪兄弟在街头遇上无家可归的她,深受其戏剧化人生吸引,于是著手打造这部充满地下色彩与毒虫文化的电影。类纪录片的写实手法,古典与迷幻电音交相冲击,残酷而写实呈现一场致命爱恋。镜头从头到尾没有一丝喘息余地,被Indiewire 誉为是迷幻经典《梦之安魂曲》以来最好的一部类似题材影片。
  1. ##### MediaInfo ######
  2. General
  3. Unique ID                                : 287015612855990175110235303992608127512 (0xD7ED3242B8E49912CE6D7A179FFB7A18)
  4. Complete name                            : Heaven.Knows.What.2014.1080p.BluRay.FLAC2.0.x264-MOMOHD.mkv
  5. Format                                   : Matroska
  6. Format version                           : Version 4
  7. File size                                : 14.2 GiB
  8. Duration                                 : 1 h 36 min
  9. Overall bit rate mode                    : Variable
  10. Overall bit rate                         : 20.9 Mb/s
  11. Movie name                               : Heaven.Knows.What.2014.1080p.BluRay.FLAC2.0.x264-PTer
  12. Encoded date                             : UTC 2022-03-11 13:21:50
  13. Writing application                      : mkvmerge v65.0.0 ('Too Much') 64-bit
  14. Writing library                          : libebml v1.4.2 + libmatroska v1.6.4
  15. Video
  16. ID                                       : 1
  17. Format                                   : AVC
  18. Format/Info                              : Advanced Video Codec
  19. Format profile                           : High@L4.1
  20. Format settings                          : CABAC / 4 Ref Frames
  21. Format settings, CABAC                   : Yes
  22. Format settings, Reference frames        : 4 frames
  23. Codec ID                                 : V_MPEG4/ISO/AVC
  24. Duration                                 : 1 h 36 min
  25. Bit rate                                 : 20.4 Mb/s
  26. Width                                    : 1 920 pixels
  27. Height                                   : 1 080 pixels
  28. Display aspect ratio                     : 16:9
  29. Frame rate mode                          : Constant
  30. Frame rate                               : 23.976 (24000/1001/53354) FPS
  31. Color space                              : YUV
  32. Chroma subsampling                       : 4:2:0
  33. Bit depth                                : 8 bits
  34. Scan type                                : Progressive
  35. Bits/(Pixel*Frame)                       : 0.410
  36. Stream size                              : 13.8 GiB (97%)
  37. Writing library                          : x264 core 164 r3085 0bb85e8
  38. Encoding settings                        : cabac=1 / ref=4 / deblock=1:-3:-3 / analyse=0x3:0x133 / me=umh / subme=11 / psy=1 / psy_rd=1.02:0.00 / mixed_ref=1 / me_range=32 / chroma_me=1 / trellis=2 / 8x8dct=1 / cqm=0 / deadzone=21,11 / fast_pskip=0 / chroma_qp_offset=-2 / threads=18 / lookahead_threads=3 / sliced_threads=0 / nr=0 / decimate=0 / interlaced=0 / NTMzNTQ= / bluray_compat=0 / constrained_intra=0 / bframes=9 / b_pyramid=2 / b_adapt=2 / b_bias=0 / direct=3 / weightb=1 / open_gop=0 / weightp=2 / keyint=250 / keyint_min=23 / NTMzNTQ=uuDQuD2mJt9fsCf / scenecut=40 / intra_refresh=0 / rc_lookahead=250 / rc=crf / mbtree=0 / crf=17.8 / qcomp=0.60 / qpmin=0 / qpmax=69 / qpstep=4 / vbv_maxrate=62500 / vbv_bufsize=78125 / crf_max=0.0 / nal_hrd=none / filler=0 / NTMzNTQ=LmsMAP37EqsCpk / ip_ratio=1.30 / pb_ratio=1.20 / aq=3:0.68 / zones=134859,139436,b=0.4
  39. Default                                  : Yes
  40. Forced                                   : No
  41. Color range                              : Limited
  42. Color primaries                          : BT.709
  43. Matrix coefficients                      : BT.709
  44. Audio
  45. ID                                       : 2
  46. Format                                   : FLAC
  47. Format/Info                              : Free Lossless Audio Codec
  48. Codec ID                                 : A_FLAC
  49. Duration                                 : 1 h 36 min
  50. Bit rate mode                            : Variable
  51. Bit rate                                 : 538 kb/s
  52. Channel(s)                               : 2 channels
  53. Channel layout                           : L R
  54. Sampling rate                            : 48.0 kHz
  55. Frame rate                               : 11.719 FPS (4096 SPF)
  56. Bit depth                                : 16 bits
  57. Compression mode                         : Lossless
  58. Stream size                              : 373 MiB (3%)
  59. Title                                    : English
  60. Writing library                          : libFLAC 1.2.1 (UTC 2007-09-17)
  61. Language                                 : English
  62. Default                                  : Yes
  63. Forced                                   : No
  64. Text #1
  65. ID                                       : 3
  66. Format                                   : UTF-8
  67. Codec ID                                 : S_TEXT/UTF8
  68. Codec ID/Info                            : UTF-8 Plain Text
  69. Duration                                 : 1 h 35 min
  70. Bit rate                                 : 55 b/s
  71. Count of elements                        : 1558
  72. Stream size                              : 38.9 KiB (0%)
  73. Title                                    : Chinese (Simplified)
  74. Language                                 : Chinese
  75. Default                                  : No
  76. Forced                                   : No
  77. Text #2
  78. ID                                       : 4
  79. Format                                   : UTF-8
  80. Codec ID                                 : S_TEXT/UTF8
  81. Codec ID/Info                            : UTF-8 Plain Text
  82. Duration                                 : 1 h 35 min
  83. Bit rate                                 : 55 b/s
  84. Count of elements                        : 1558
  85. Stream size                              : 38.9 KiB (0%)
  86. Title                                    : Chinese (Traditional)
  87. Language                                 : Chinese
  88. Default                                  : No
  89. Forced                                   : No
  90. Text #3
  91. ID                                       : 5
  92. Format                                   : UTF-8
  93. Codec ID                                 : S_TEXT/UTF8
  94. Codec ID/Info                            : UTF-8 Plain Text
  95. Duration                                 : 1 h 33 min
  96. Bit rate                                 : 63 b/s
  97. Count of elements                        : 1267
  98. Stream size                              : 43.2 KiB (0%)
  99. Title                                    : English
  100. Language                                 : English
  101. Default                                  : No
  102. Forced                                   : No
  103. Text #4
  104. ID                                       : 6
  105. Format                                   : UTF-8
  106. Codec ID                                 : S_TEXT/UTF8
  107. Codec ID/Info                            : UTF-8 Plain Text
  108. Duration                                 : 1 h 34 min
  109. Bit rate                                 : 64 b/s
  110. Count of elements                        : 1308
  111. Stream size                              : 45.0 KiB (0%)
  112. Title                                    : English(SDH)
  113. Language                                 : English
  114. Default                                  : No
  115. Forced                                   : No
  116. Text #5
  117. ID                                       : 7
  118. Format                                   : UTF-8
  119. Codec ID                                 : S_TEXT/UTF8
  120. Codec ID/Info                            : UTF-8 Plain Text
  121. Duration                                 : 1 h 32 min
  122. Bit rate                                 : 57 b/s
  123. Count of elements                        : 1386
  124. Stream size                              : 38.9 KiB (0%)
  125. Title                                    : Spanish
  126. Language                                 : Spanish
  127. Default                                  : No
  128. Forced                                   : No
  129. Text #6
  130. ID                                       : 8
  131. Format                                   : UTF-8
  132. Codec ID                                 : S_TEXT/UTF8
  133. Codec ID/Info                            : UTF-8 Plain Text
  134. Duration                                 : 1 h 33 min
  135. Bit rate                                 : 46 b/s
  136. Count of elements                        : 1167
  137. Stream size                              : 31.8 KiB (0%)
  138. Title                                    : French
  139. Language                                 : French
  140. Default                                  : No
  141. Forced                                   : No
  142. Text #7
  143. ID                                       : 9
  144. Format                                   : UTF-8
  145. Codec ID                                 : S_TEXT/UTF8
  146. Codec ID/Info                            : UTF-8 Plain Text
  147. Duration                                 : 1 h 34 min
  148. Bit rate                                 : 90 b/s
  149. Count of elements                        : 1538
  150. Stream size                              : 62.7 KiB (0%)
  151. Title                                    : Persian
  152. Language                                 : Persian
  153. Default                                  : No
  154. Forced                                   : No
  155. Text #8
  156. ID                                       : 10
  157. Format                                   : UTF-8
  158. Codec ID                                 : S_TEXT/UTF8
  159. Codec ID/Info                            : UTF-8 Plain Text
  160. Duration                                 : 1 h 32 min
  161. Bit rate                                 : 107 b/s
  162. Count of elements                        : 1542
  163. Stream size                              : 72.6 KiB (0%)
  164. Title                                    : Russian
  165. Language                                 : Russian
  166. Default                                  : No
  167. Forced                                   : No
  168. Menu
  169. 00:00:00.000                             : en:Chapter 01
  170. 00:08:31.052                             : en:Chapter 02
  171. 00:17:08.736                             : en:Chapter 03
  172. 00:25:10.801                             : en:Chapter 04
  173. 00:33:53.698                             : en:Chapter 05
  174. 00:41:48.548                             : en:Chapter 06
  175. 00:52:34.234                             : en:Chapter 07
  176. 01:01:00.615                             : en:Chapter 08
  177. 01:07:42.684                             : en:Chapter 09
  178. 01:15:32.111                             : en:Chapter 10
  179. 01:24:53.797                             : en:Chapter 11
  180. 01:31:06.753                             : en:Chapter 12
  181. 01:32:53.109                             : en:Chapter 13




下载地址:

Heaven.Knows.What.2014.1080p.BluRay.FLAC2.0.x264-MOMOHD.torrent

BT9527电影天堂 1、BT9527电影天堂提供的BT文件均来源于互联网抓取,只供网友学习交流、技术提升使用。
2、我们遵守BitTorrent点对点协议原则,任何版权问题请联系原资源发布商,我们不处理任何版权纠纷,谢谢!如有争议请联系邮箱:BT9527#hotmail.com(#换成@)
3、如果您发现某页面或地址有错误,请联系站长邮箱BT9527#hotmail.com(#换成@),我们会尽快处理。您的热心是对BT9527电影天堂最大的支持。
4、本站建议去正规影院观看电影以支持电影行业发展。
最新回复 (0)

你可以在 登录 or 注册 后,对此帖发表评论!

返回
发新帖