神奇动物:邓布利多之谜[杜比视界版本][中文字幕].Fantastic.Beasts.The.Secrets.of.Dumbledore.2022.2160p.HDR.DoVi.UHD.BluRay.TrueHD.7.1.Atmos.2Audio.x265

版主小s 1天前 60

✔资源类型:BD-4K   ✔电影年份:2022   ✔电影地区:欧美   ✔电影分类:奇幻

◎标  题 神奇动物:邓布利多之谜
◎译  名 神奇动物在哪里3:邓布利多之谜 / 神奇生物在哪里3 / 怪兽与邓不利多的秘密(港 / 台)
◎片  名 Fantastic Beasts: The Secrets of Dumbledore
◎年  代 2022
◎产  地 英国 / 美国
◎类  别 奇幻 / 冒险
◎语  言 英语 / 德语
◎上映日期 2022-04-08(英国/中国大陆) / 2022-04-15(美国)
◎IMDb评分 6.5/10 (50499人评价)
◎IMDb链接 https://www.imdb.com/title/tt4123432/
◎豆瓣评分 6.1/10 (88625人评价)
◎豆瓣链接 https://movie.douban.com/subject/26147418/
◎片  长 142分钟
◎导  演 大卫·叶茨 David Yates
◎编  剧 J. K. 罗琳 J. K. Rowling
       史蒂夫·克洛夫斯 Steve Kloves
◎演  员 埃迪·雷德梅恩 Eddie Redmayne
       裘德·洛 Jude Law
       麦斯·米科尔森 Mads Mikkelsen
       丹·福勒 Dan Fogler
       艾莉森·萨多尔 Alison Sudol
       凯瑟琳·沃特斯顿 Katherine Waterston
       埃兹拉·米勒 Ezra Miller
       卡勒姆·特纳 Callum Turner
       杰西卡·威廉姆斯 Jessica Williams
       理查德·柯伊尔 Richard Coyle
       波佩·科比-特曲 Poppy Corby-Tuech
       维多利亚·耶茨 Victoria Yeates
       威廉·纳迪兰 William Nadylam
       奥利弗·马苏奇 Oliver Masucci
       瓦莱丽·帕赫纳 Valerie Pachner
       亚历山大·库兹涅佐夫 Aleksandr Kuznetsov
       拉莫娜·库泽-莉比诺 Ramona Kunze-Libnow
       马丽娅·费尔南达·康基多 Maria Fernanda Cândido
       戴夫·王 Dave Wong  
       维尔夫·斯科尔丁 Wilf Scolding
       卢卡斯·英格兰德 Lucas Englander
       菲奥娜·格拉斯科特 Fiona Glascott
       马提亚斯·布伦纳 Matthias Brenner
       彼得·西蒙尼舍克 Peter Simonischek
       雅基·波特斯万 Jacqui Boatswain
       赫柏·贝尔德索尔 Hebe Beardsall
       Manuel Klein Manuel Klein
       凯文·格思里 Kevin Guthrie
       詹姆斯·纽顿·霍华德 James Newton Howard
       乔治·瑞奇蒙 George Richmond
       柯琳·阿特伍德 Colleen Atwood

◎简  介
  阿不思·邓布利多教授(裘德·洛 饰)意识到强大的黑巫师盖勒特·格林德沃(麦斯·米科尔森 饰)正试图夺取魔法世界的控制权。邓布利多了解仅凭他一人之力,将无法阻止格林德沃,于是他委托魔法动物学家纽特·斯卡曼德(埃迪·雷德梅恩 饰)带领一支精良的团队——成员包括男巫、女巫及一位勇敢的麻瓜面包师,来共同执行这项危险任务。一路上他们会遇到各式各样的神奇动物,既有老朋友,也有前所未见的神秘生物;同时他们也随时会与格林德沃不断壮大的追随者发生冲突。这次行动的风险是如此之高……邓布利多还能袖手旁观多久?
  1. ##### MediaInfo ######
  2. General
  3. Unique ID                                : 153602631364121757643852151494584982438 (0x738ECA6D27DB22EB9EEAF80071DA5BA6)
  4. Complete name                            : Fantastic.Beasts.The.Secrets.of.Dumbledore.2022.2160p.HDR.DoVi.UHD.BluRay.TrueHD.7.1.Atmos.2Audio.x265-10bit-BATHD.mkv
  5. Format                                   : Matroska
  6. Format version                           : Version 4
  7. File size                                : 20.0 GiB
  8. Duration                                 : 2 h 22 min
  9. Overall bit rate mode                    : Variable
  10. Overall bit rate                         : 20.0 Mb/s
  11. Movie name                               : Fantastic Beasts: The Secrets of Dumbledore
  12. Encoded date                             : UTC 2022-08-03 02:25:45
  13. Writing application                      : mkvmerge v69.0.0 ('Day And Age') 64-bit
  14. Writing library                          : libebml v1.4.2 + libmatroska v1.6.4
  15. Video
  16. ID                                       : 1
  17. Format                                   : HEVC
  18. Format/Info                              : High Efficiency Video Coding
  19. Format profile                           : Main 10@L6.1@High
  20. HDR format                               : SMPTE ST 2086, HDR10 compatible
  21. Codec ID                                 : V_MPEGH/ISO/HEVC
  22. Duration                                 : 2 h 22 min
  23. Bit rate                                 : 16.6 Mb/s
  24. Width                                    : 3 840 pixels
  25. Height                                   : 1 604 pixels
  26. Display aspect ratio                     : 2.40:1
  27. Frame rate mode                          : Constant
  28. Frame rate                               : 23.976 (24000/1001/53354) FPS
  29. Color space                              : YUV
  30. Chroma subsampling                       : 4:2:0
  31. Bit depth                                : 10 bits
  32. Bits/(Pixel*Frame)                       : 0.113
  33. Stream size                              : 16.6 GiB (83%)
  34. Writing library                          : x265 - H.265/HEVC codec
  35. Default                                  : Yes
  36. Forced                                   : No
  37. Color range                              : Limited
  38. Color primaries                          : BT.2020
  39. Transfer characteristics                 : PQ
  40. Matrix coefficients                      : BT.2020 non-constant
  41. Mastering display color primaries        : Display P3
  42. Mastering display luminance              : min: 0.0001 cd/m2, max: 1000 cd/m2
  43. Maximum Content Light Level              : 500 cd/m2
  44. Maximum Frame-Average Light Level        : 54 cd/m2
  45. Audio #1
  46. ID                                       : 2
  47. ID in the original source medium         : 4352 (0x1100)
  48. Format                                   : MLP FBA 16-ch
  49. Format/Info                              : Meridian Lossless Packing FBA with 16-channel presentation
  50. Commercial name                          : Dolby TrueHD with Dolby Atmos
  51. Codec ID                                 : A_TRUEHD
  52. Duration                                 : 2 h 22 min
  53. Bit rate mode                            : Variable
  54. Bit rate                                 : 2 742 kb/s
  55. Maximum bit rate                         : 4 389 kb/s
  56. Channel(s)                               : 8 channels
  57. Channel layout                           : L R C LFE Ls Rs Lb Rb
  58. Sampling rate                            : 48.0 kHz
  59. Frame rate                               : 1 200.000 FPS (40 SPF)
  60. Bit depth                                : 24 bits
  61. Compression mode                         : Lossless
  62. Stream size                              : 2.73 GiB (14%)
  63. Title                                    : 环绕声 7.1
  64. Language                                 : English
  65. Default                                  : Yes
  66. Forced                                   : No
  67. Original source medium                   : Blu-ray
  68. Number of dynamic objects                : 11
  69. Bed channel count                        : 1 channel
  70. Bed channel configuration                : LFE
  71. Audio #2
  72. ID                                       : 3
  73. ID in the original source medium         : 4352 (0x1100)
  74. Format                                   : AC-3
  75. Format/Info                              : Audio Coding 3
  76. Commercial name                          : Dolby Digital
  77. Codec ID                                 : A_AC3
  78. Duration                                 : 2 h 22 min
  79. Bit rate mode                            : Constant
  80. Bit rate                                 : 448 kb/s
  81. Channel(s)                               : 6 channels
  82. Channel layout                           : L R C LFE Ls Rs
  83. Sampling rate                            : 48.0 kHz
  84. Frame rate                               : 31.250 FPS (1536 SPF)
  85. Compression mode                         : Lossy
  86. Stream size                              : 457 MiB (2%)
  87. Title                                    : 环绕声 5.1
  88. Language                                 : English
  89. Service kind                             : Complete Main
  90. Default                                  : No
  91. Forced                                   : No
  92. Original source medium                   : Blu-ray
  93. Text #1
  94. ID                                       : 4
  95. ID in the original source medium         : 4768 (0x12A0)
  96. Format                                   : PGS
  97. Muxing mode                              : zlib
  98. Codec ID                                 : S_HDMV/PGS
  99. Codec ID/Info                            : Picture based subtitle format used on BDs/HD-DVDs
  100. Duration                                 : 2 h 20 min
  101. Bit rate                                 : 29.0 kb/s
  102. Count of elements                        : 3647
  103. Stream size                              : 29.1 MiB (0%)
  104. Language                                 : English
  105. Default                                  : No
  106. Forced                                   : No
  107. Original source medium                   : Blu-ray
  108. Text #2
  109. ID                                       : 5
  110. ID in the original source medium         : 4769 (0x12A1)
  111. Format                                   : PGS
  112. Muxing mode                              : zlib
  113. Codec ID                                 : S_HDMV/PGS
  114. Codec ID/Info                            : Picture based subtitle format used on BDs/HD-DVDs
  115. Duration                                 : 2 h 13 min
  116. Bit rate                                 : 57.4 kb/s
  117. Count of elements                        : 4805
  118. Stream size                              : 54.9 MiB (0%)
  119. Language                                 : Chinese
  120. Default                                  : No
  121. Forced                                   : No
  122. Original source medium                   : Blu-ray
  123. Text #3
  124. ID                                       : 6
  125. ID in the original source medium         : 4770 (0x12A2)
  126. Format                                   : PGS
  127. Muxing mode                              : zlib
  128. Codec ID                                 : S_HDMV/PGS
  129. Codec ID/Info                            : Picture based subtitle format used on BDs/HD-DVDs
  130. Duration                                 : 2 h 13 min
  131. Bit rate                                 : 57.9 kb/s
  132. Count of elements                        : 4805
  133. Stream size                              : 55.4 MiB (0%)
  134. Language                                 : Chinese
  135. Default                                  : No
  136. Forced                                   : No
  137. Original source medium                   : Blu-ray
  138. Text #4
  139. ID                                       : 7
  140. ID in the original source medium         : 4771 (0x12A3)
  141. Format                                   : PGS
  142. Muxing mode                              : zlib
  143. Codec ID                                 : S_HDMV/PGS
  144. Codec ID/Info                            : Picture based subtitle format used on BDs/HD-DVDs
  145. Duration                                 : 2 h 13 min
  146. Bit rate                                 : 55.1 kb/s
  147. Count of elements                        : 4805
  148. Stream size                              : 52.7 MiB (0%)
  149. Language                                 : Chinese
  150. Default                                  : No
  151. Forced                                   : No
  152. Original source medium                   : Blu-ray
  153. Text #5
  154. ID                                       : 8
  155. ID in the original source medium         : 4772 (0x12A4)
  156. Format                                   : PGS
  157. Muxing mode                              : zlib
  158. Codec ID                                 : S_HDMV/PGS
  159. Codec ID/Info                            : Picture based subtitle format used on BDs/HD-DVDs
  160. Duration                                 : 2 h 13 min
  161. Bit rate                                 : 55.8 kb/s
  162. Count of elements                        : 4805
  163. Stream size                              : 53.4 MiB (0%)
  164. Language                                 : Chinese
  165. Default                                  : No
  166. Forced                                   : No
  167. Original source medium                   : Blu-ray
  168. Text #6
  169. ID                                       : 9
  170. ID in the original source medium         : 4773 (0x12A5)
  171. Format                                   : PGS
  172. Muxing mode                              : zlib
  173. Codec ID                                 : S_HDMV/PGS
  174. Codec ID/Info                            : Picture based subtitle format used on BDs/HD-DVDs
  175. Duration                                 : 2 h 21 min
  176. Bit rate                                 : 20.3 kb/s
  177. Count of elements                        : 2310
  178. Stream size                              : 20.6 MiB (0%)
  179. Language                                 : Chinese
  180. Default                                  : No
  181. Forced                                   : No
  182. Original source medium                   : Blu-ray
  183. Text #7
  184. ID                                       : 10
  185. ID in the original source medium         : 4774 (0x12A6)
  186. Format                                   : PGS
  187. Muxing mode                              : zlib
  188. Codec ID                                 : S_HDMV/PGS
  189. Codec ID/Info                            : Picture based subtitle format used on BDs/HD-DVDs
  190. Duration                                 : 2 h 21 min
  191. Bit rate                                 : 19.8 kb/s
  192. Count of elements                        : 2454
  193. Stream size                              : 20.0 MiB (0%)
  194. Language                                 : Chinese
  195. Default                                  : No
  196. Forced                                   : No
  197. Original source medium                   : Blu-ray
  198. Menu
  199. 00:00:00.000                             : en:Chapter 01
  200. 00:10:32.465                             : en:Chapter 02
  201. 00:21:47.597                             : en:Chapter 03
  202. 00:28:14.526                             : en:Chapter 04
  203. 00:37:49.600                             : en:Chapter 05
  204. 00:47:41.567                             : en:Chapter 06
  205. 01:00:03.141                             : en:Chapter 07
  206. 01:10:51.497                             : en:Chapter 08
  207. 01:18:50.600                             : en:Chapter 09
  208. 01:30:10.446                             : en:Chapter 10
  209. 01:39:50.234                             : en:Chapter 11
  210. 01:49:31.064                             : en:Chapter 12
  211. 01:56:51.087                             : en:Chapter 13
  212. 02:07:18.088                             : en:Chapter 14
  213. 02:13:17.990                             : en:Chapter 15




下载地址:

Fantastic.Beasts.The.Secrets.of.Dumbledore.2022.2160p.HDR.DoVi.UHD.BluRay.TrueHD.torrent

BT9527电影天堂 1、BT9527电影天堂提供的BT文件均来源于互联网抓取,只供网友学习交流、技术提升使用。
2、我们遵守BitTorrent点对点协议原则,任何版权问题请联系原资源发布商,我们不处理任何版权纠纷,谢谢!如有争议请联系邮箱:BT9527#hotmail.com(#换成@)
3、如果您发现某页面或地址有错误,请联系站长邮箱BT9527#hotmail.com(#换成@),我们会尽快处理。您的热心是对BT9527电影天堂最大的支持。
4、本站建议去正规影院观看电影以支持电影行业发展。
最新回复 (0)

你可以在 登录 or 注册 后,对此帖发表评论!

返回
发新帖