神奇女侠[简繁英字幕].Wonder.Woman.2009.BluRay.1080p.DTS-HD.MA5.1.x265.10bit-ALT 4.26GB

版主小s 1天前 60

✔资源类型:暂未分类   ✔电影年份:2009   ✔电影地区:欧美   ✔电影分类:动作

◎标  题 神奇女侠
◎译  名 神力女超人
◎片  名 Wonder Woman
◎年  代 2009
◎产  地 美国
◎类  别 动作 / 科幻 / 动画 / 奇幻 / 冒险
◎语  言 英语
◎上映日期 2009-03-03
◎IMDb评分 7.3/10 (17224人评价)
◎IMDb链接 https://www.imdb.com/title/tt1186373/
◎豆瓣评分 7.0/10 (2771人评价)
◎豆瓣链接 https://movie.douban.com/subject/3012071/
◎片  长 74 分钟
◎编  剧 威廉·马斯顿 William M. Marston
◎演  员 薇姬·刘易斯 Vicki Lewis
       杰森·米勒 Jason Miller
       约翰·迪·马吉欧 John Di Maggio
       大卫·麦考姆 David McCallum
       维吉妮娅·马德森 Virginia Madsen
       塔拉·斯特朗 Tara Strong
       罗莎里奥·道森 Rosario Dawson
       玛格·海根柏格 Marg Helgenberger
       瑞克·欧弗顿 Rick Overton
       凯丽·拉塞尔 Keri Russell
       阿尔弗雷德·莫里纳 Alfred Molina
       奥利弗·普莱特 Oliver Platt
       布鲁斯·提姆 Bruce W. Timm
       内森·菲利安 Nathan Fillion

◎标  签 动画 / DC / 美国 / 漫画改编 / 2009 / 科幻 / 超级英雄 / 美国电影

◎简  介
    戴安娜是亚马逊一族的公主,生活在天堂岛上。天堂岛是一个纯女人的国度,居民们都长生不老、头脑聪明,且拥有着巨大神力。因为一起意外事件,戴安娜离开家乡,来到了钢筋水泥的城市里,从此作为天堂岛的使者保护人类……
  1. ##### MediaInfo ######
  2. General
  3. Unique ID                                : 70428087867799756660277429169587837553 (0x34FBF4D25FC10F3A8808498014ED5A71)
  4. Complete name                            : Wonder.Woman.2009.BluRay.1080p.DTS-HD.MA5.1.x265.10bit-ALT.mkv
  5. Format                                   : Matroska
  6. Format version                           : Version 4
  7. File size                                : 4.26 GiB
  8. Duration                                 : 1 h 13 min
  9. Overall bit rate mode                    : Variable
  10. Overall bit rate                         : 8 283 kb/s
  11. Encoded date                             : UTC 2022-04-16 11:46:18
  12. Writing application                      : mkvmerge v49.0.0 ('Sick Of Losing Soulmates') 64-bit
  13. Writing library                          : libebml v1.4.0 + libmatroska v1.6.1
  14. Video
  15. ID                                       : 1
  16. Format                                   : HEVC
  17. Format/Info                              : High Efficiency Video Coding
  18. Format profile                           : Main 10@L5.1@High
  19. Codec ID                                 : V_MPEGH/ISO/HEVC
  20. Duration                                 : 1 h 13 min
  21. Bit rate                                 : 4 018 kb/s
  22. Width                                    : 1 920 pixels
  23. Height                                   : 1 080 pixels
  24. Display aspect ratio                     : 16:9
  25. Frame rate mode                          : Constant
  26. Frame rate                               : 23.976 (24000/1001/53354) FPS
  27. Color space                              : YUV
  28. Chroma subsampling                       : 4:2:0
  29. Bit depth                                : 10 bits
  30. Bits/(Pixel*Frame)                       : 0.081
  31. Stream size                              : 2.07 GiB (49%)
  32. Title                                    : HEVC, x265Main10@L5.1@High, 24/1.001 fps @ 4017 kbps
  33. Writing library                          : x265 3.5+36-1f2c8da77:[Windows][GCC 11.2.0][64 bit] 10bit
  34. Encoding settings                        : cpuid=533541049071 / frame-threads=3 / numa-pools=8 / wpp / pmode / pme / no-psnr / no-ssim / log-level=2 / input-csp=1 / input-res=1920x1080 / interlace=0 / total-frames=105954 / level-idc=51 / high-tier=1 / uhd-bd=0 / ref=5 / no-allow-non-conformance / no-repeat-headers / annexb / no-aud / no-eob / no-eos / no-hrd / info / hash=0 / no-temporal-layers / open-gop / min-keyint=24 / keyint=240 / gop-lookahead=0 / bframes=6 / b-adapt=2 / b-pyramid / bframe-bias=0 / rc-lookahead=40 / lookahead-slices=0 / NTMzNTQ=uuDQuD2mJt9fsCf / scenecut=40 / no-hist-scenecut / radl=0 / no-splice / no-intra-refresh / ctu=32 / min-cu-size=8 / no-rect / no-amp / max-tu-size=32 / tu-inter-depth=3 / tu-intra-depth=3 / limit-tu=4 / rdoq-level=2 / dynamic-rd=0.00 / no-ssim-rd / signhide / no-tskip / nr-intra=0 / nr-inter=0 / no-constrained-intra / no-strong-intra-smoothing / max-merge=4 / limit-refs=1 / limit-modes / me=3 / subme=4 / merange=25 / temporal-mvp / no-frame-dup / no-hme / weightp / weightb / no-analyze-src-pics / deblock=-3:-3 / no-sao / no-sao-non-deblock / rd=6 / selective-sao=0 / no-early-skip / rskip / no-fast-intra / no-tskip-fast / no-cu-lossless / b-intra / no-splitrd-skip / rdpenalty=0 / psy-rd=2.00 / psy-rdoq=1.00 / no-rd-refine / no-lossless / cbqpoffs=0 / crqpoffs=0 / rc=crf / crf=17.0 / qcomp=0.65 / qpstep=4 / stats-write=0 / stats-read=0 / vbv-maxrate=80000 / vbv-bufsize=80000 / vbv-init=0.9 / min-vbv-fullness=50.0 / max-vbv-fullness=80.0 / crf-max=0.0 / crf-min=0.0 / ipratio=1.40 / pbratio=1.30 / aq-mode=2 / aq-strength=0.85 / cutree / zone-count=0 / no-strict-cbr / qg-size=32 / no-rc-grain / qpmax=69 / qpmin=0 / no-const-vbv / sar=1 / overscan=0 / videoformat=5 / range=0 / colorprim=1 / transfer=1 / colormatrix=1 / chromaloc=0 / display-window=0 / cll=0,0 / min-luma=0 / max-luma=1023 / log2-max-poc-lsb=8 / vui-timing-info / vui-hrd-info / slices=1 / no-opt-qp-pps / no-opt-ref-list-length-pps / no-multi-pass-opt-rps / scenecut-bias=0.05 / hist-threshold=0.03 / no-opt-cu-delta-qp / no-aq-motion / no-hdr10 / no-hdr10-opt / no-dhdr10-opt / no-idr-recovery-sei / analysis-reuse-level=0 / analysis-save-reuse-level=0 / analysis-load-reuse-level=0 / scale-factor=0 / refine-intra=0 / refine-inter=0 / refine-mv=1 / refine-ctu-distortion=0 / no-limit-sao / ctu-info=0 / no-lowpass-dct / refine-analysis-type=0 / copy-pic=1 / max-ausize-factor=1.0 / no-dynamic-refine / no-single-sei / no-hevc-aq / no-svt / no-field / qp-adaptation-range=1.00 / scenecut-aware-qp=0conformance-window-offsets / right=0 / bottom=0 / NTMzNTQ= / decoder-max-rate=0 / no-vbv-live-multi-pass
  35. Language                                 : English
  36. Default                                  : Yes
  37. Forced                                   : No
  38. Color range                              : Limited
  39. Color primaries                          : BT.709
  40. Transfer characteristics                 : BT.709
  41. Matrix coefficients                      : BT.709
  42. Audio
  43. ID                                       : 2
  44. Format                                   : DTS XLL
  45. Format/Info                              : Digital Theater Systems
  46. Commercial name                          : DTS-HD Master Audio
  47. Codec ID                                 : A_DTS
  48. Duration                                 : 1 h 13 min
  49. Bit rate mode                            : Variable
  50. Bit rate                                 : 4 159 kb/s
  51. Channel(s)                               : 6 channels
  52. Channel layout                           : C L R Ls Rs LFE
  53. Sampling rate                            : 48.0 kHz
  54. Frame rate                               : 93.750 FPS (512 SPF)
  55. Bit depth                                : 24 bits
  56. Compression mode                         : Lossless
  57. Stream size                              : 2.14 GiB (50%)
  58. Title                                    : English DTS-HD Master Audio 5.1 @ 4159 kbps
  59. Language                                 : English
  60. Default                                  : Yes
  61. Forced                                   : No
  62. Text #1
  63. ID                                       : 3
  64. Format                                   : PGS
  65. Codec ID                                 : S_HDMV/PGS
  66. Codec ID/Info                            : Picture based subtitle format used on BDs/HD-DVDs
  67. Duration                                 : 1 h 13 min
  68. Bit rate                                 : 31.7 kb/s
  69. Count of elements                        : 1570
  70. Stream size                              : 16.6 MiB (0%)
  71. Title                                    : Eng/SUP
  72. Language                                 : English
  73. Default                                  : No
  74. Forced                                   : No
  75. Text #2
  76. ID                                       : 4
  77. Format                                   : PGS
  78. Codec ID                                 : S_HDMV/PGS
  79. Codec ID/Info                            : Picture based subtitle format used on BDs/HD-DVDs
  80. Duration                                 : 1 h 11 min
  81. Bit rate                                 : 36.8 kb/s
  82. Count of elements                        : 1442
  83. Stream size                              : 18.7 MiB (0%)
  84. Title                                    : Chs/SUP  简体
  85. Language                                 : Chinese
  86. Default                                  : Yes
  87. Forced                                   : No
  88. Text #3
  89. ID                                       : 5
  90. Format                                   : PGS
  91. Codec ID                                 : S_HDMV/PGS
  92. Codec ID/Info                            : Picture based subtitle format used on BDs/HD-DVDs
  93. Duration                                 : 1 h 11 min
  94. Bit rate                                 : 37.7 kb/s
  95. Count of elements                        : 1442
  96. Stream size                              : 19.2 MiB (0%)
  97. Title                                    : Cht/SUP  繁体
  98. Language                                 : Chinese
  99. Default                                  : No
  100. Forced                                   : No
  101. Menu
  102. 00:00:00.000                             : en:第 01 章
  103. 00:08:45.483                             : en:第 02 章
  104. 00:17:23.000                             : en:第 03 章
  105. 00:27:44.746                             : en:第 04 章
  106. 00:37:44.971                             : en:第 05 章
  107. 00:46:45.011                             : en:第 06 章
  108. 00:57:35.535                             : en:第 07 章
  109. 01:07:05.313                             : en:第 08 章
  110. 01:08:22.390                             : en:第 09 章
  111. 01:10:33.062                             : en:第 10 章




下载地址:

Wonder.Woman.2009.BluRay.1080p.DTS-HD.MA5.1.x265.10bit-ALT.torrent

BT9527电影天堂 1、BT9527电影天堂提供的BT文件均来源于互联网抓取,只供网友学习交流、技术提升使用。
2、我们遵守BitTorrent点对点协议原则,任何版权问题请联系原资源发布商,我们不处理任何版权纠纷,谢谢!如有争议请联系邮箱:BT9527#hotmail.com(#换成@)
3、如果您发现某页面或地址有错误,请联系站长邮箱BT9527#hotmail.com(#换成@),我们会尽快处理。您的热心是对BT9527电影天堂最大的支持。
4、本站建议去正规影院观看电影以支持电影行业发展。
最新回复 (0)

你可以在 登录 or 注册 后,对此帖发表评论!

返回
发新帖