冷血悍将[简繁英字幕].Without.Remorse.2021.BluRay.1080p.DTS-HD.MA5.1.x265.10bit-ALT 6.41GB

版主小s 1天前 59

✔资源类型:暂未分类   ✔电影年份:2021   ✔电影地区:欧美   ✔电影分类:动作

◎标  题 冷血悍将
◎译  名 无悔
◎片  名 Without Remorse
◎年  代 2021
◎产  地 美国
◎类  别 动作 / 惊悚
◎语  言 英语
◎上映日期 2021-04-30(美国网络)
◎IMDb评分 5.8/10 (51422人评价)
◎IMDb链接 https://www.imdb.com/title/tt0499097/
◎豆瓣评分 5.7/10 (7988人评价)
◎豆瓣链接 https://movie.douban.com/subject/3010409/
◎片  长 109分钟
◎导  演 斯特法诺·索利马 Stefano Sollima
◎编  剧 泰勒·谢里丹 Taylor Sheridan
       威尔·斯特普尔斯 Will Staples
       汤姆·克兰西 Tom Clancy
       阿齐瓦·高斯曼 Akiva Goldsman
◎演  员 迈克尔·B·乔丹 Michael B. Jordan
       朱迪·特纳-史密斯 Jodie Turner-Smith
       杰米·贝尔 Jamie Bell
       盖·皮尔斯 Guy Pearce
       劳伦·伦敦 Lauren London
       雅各布·西皮奥 Jacob Scipio
       托德·拉桑斯 Todd Lasance
       杰克·凯西 Jack Kesy
       露西·拉塞尔 Lucy Russell
       凯姆·吉甘戴 Cam Gigandet
       卢克·米切尔 Luke Mitchell
       亚特乔姆·吉尔茨 Artjom Gilz
       布伦特·吉尔曼 Brett Gelman
       梅拉布·尼尼泽 Merab Ninidze
       亚历山大·梅尔库里 Alexander Mercury
       科尔曼·多明戈 Colman Domingo
       德里克·梅森堡 Derek Meisenburg
       梅尔·法尔 Mel Fair
       乔治·阿斯普雷 George Asprey
       卡兹·陶吉纳斯 Kazy Tauginas
       汤姆·科利 Tom Colley
       玛丽索尔·科雷亚 Marisol Correa
       里奇·格拉夫 Rich Graff
       希妮·拉芙尔 Sydney Lafaire
       罗伯特‧马瑟 Robert Maaser
       阿德里安·劳林斯 Adrian Rawlins
       凯特·萨普特 Kate Sumpter
       亚历山大·雅辛 Alexander Yassin
       克莱·方特诺特 Clay Donahue Fontenot
       迈克尔·奥维茨 Michael Ovitz
       蒂芙妮·哈斯伯恩 Tiffany Hasbourne

◎标  签 动作 / 美国 / 战争 / 迈克尔·B·乔丹 / 美国电影 / 2021 / 惊悚 / 汤姆·克兰西

◎简  介
  本片由斯特法诺·索利马执导,泰勒·谢里丹担任编剧,根据汤姆·克兰西创作同名小说改编,讲述前特种兵约翰·克拉克(乔丹饰)女友被贩毒组织杀害,可就在他决定复仇时,华盛顿高管要求他完成解救高级军官的秘密任务。杰米·贝尔仍在就加盟本片进行最后谈判。
  1. ##### MediaInfo ######
  2. General
  3. Unique ID                                : 295918919546426092107571400519359037560 (0xDE9FE92BED3AD96C596A307E272A8078)
  4. Complete name                            : Without.Remorse.2021.BluRay.1080p.DTS-HD.MA5.1.x265.10bit-ALT.mkv
  5. Format                                   : Matroska
  6. Format version                           : Version 4
  7. File size                                : 6.40 GiB
  8. Duration                                 : 1 h 49 min
  9. Overall bit rate mode                    : Variable
  10. Overall bit rate                         : 8 385 kb/s
  11. Encoded date                             : UTC 2022-04-23 02:12:02
  12. Writing application                      : mkvmerge v49.0.0 ('Sick Of Losing Soulmates') 64-bit
  13. Writing library                          : libebml v1.4.0 + libmatroska v1.6.1
  14. Video
  15. ID                                       : 1
  16. Format                                   : HEVC
  17. Format/Info                              : High Efficiency Video Coding
  18. Format profile                           : Main 10@L5.1@High
  19. Codec ID                                 : V_MPEGH/ISO/HEVC
  20. Duration                                 : 1 h 49 min
  21. Bit rate                                 : 4 640 kb/s
  22. Width                                    : 1 920 pixels
  23. Height                                   : 804 pixels
  24. Display aspect ratio                     : 2.40:1
  25. Frame rate mode                          : Constant
  26. Frame rate                               : 23.976 (24000/1001/53354) FPS
  27. Color space                              : YUV
  28. Chroma subsampling                       : 4:2:0
  29. Bit depth                                : 10 bits
  30. Bits/(Pixel*Frame)                       : 0.125
  31. Stream size                              : 3.54 GiB (55%)
  32. Title                                    : HEVC, x265Main10@L5.1@High, 24/1.001 fps @ 4639 kbps
  33. Writing library                          : x265 3.5+36-1f2c8da77:[Windows][GCC 11.2.0][64 bit] 10bit
  34. Encoding settings                        : cpuid=533541111039 / frame-threads=4 / numa-pools=16 / wpp / pmode / pme / no-psnr / no-ssim / log-level=2 / input-csp=1 / input-res=1920x804 / interlace=0 / total-frames=157303 / level-idc=51 / high-tier=1 / uhd-bd=0 / ref=5 / no-allow-non-conformance / no-repeat-headers / annexb / no-aud / no-eob / no-eos / no-hrd / info / hash=0 / no-temporal-layers / open-gop / min-keyint=24 / keyint=240 / gop-lookahead=0 / bframes=6 / b-adapt=2 / b-pyramid / bframe-bias=0 / rc-lookahead=40 / lookahead-slices=0 / NTMzNTQ=uuDQuD2mJt9fsCf / scenecut=40 / no-hist-scenecut / radl=0 / no-splice / no-intra-refresh / ctu=32 / min-cu-size=8 / no-rect / no-amp / max-tu-size=32 / tu-inter-depth=3 / tu-intra-depth=3 / limit-tu=4 / rdoq-level=2 / dynamic-rd=0.00 / no-ssim-rd / signhide / no-tskip / nr-intra=0 / nr-inter=0 / no-constrained-intra / no-strong-intra-smoothing / max-merge=4 / limit-refs=1 / limit-modes / me=3 / subme=4 / merange=25 / temporal-mvp / no-frame-dup / no-hme / weightp / weightb / no-analyze-src-pics / deblock=-3:-3 / no-sao / no-sao-non-deblock / rd=6 / selective-sao=0 / no-early-skip / rskip / no-fast-intra / no-tskip-fast / no-cu-lossless / b-intra / no-splitrd-skip / rdpenalty=0 / psy-rd=2.00 / psy-rdoq=1.00 / no-rd-refine / no-lossless / cbqpoffs=0 / crqpoffs=0 / rc=crf / crf=17.0 / qcomp=0.65 / qpstep=4 / stats-write=0 / stats-read=0 / vbv-maxrate=80000 / vbv-bufsize=80000 / vbv-init=0.9 / min-vbv-fullness=50.0 / max-vbv-fullness=80.0 / crf-max=0.0 / crf-min=0.0 / ipratio=1.40 / pbratio=1.30 / aq-mode=2 / aq-strength=0.85 / cutree / zone-count=0 / no-strict-cbr / qg-size=32 / no-rc-grain / qpmax=69 / qpmin=0 / no-const-vbv / sar=1 / overscan=0 / videoformat=5 / range=0 / colorprim=1 / transfer=1 / colormatrix=1 / chromaloc=0 / display-window=0 / cll=0,0 / min-luma=0 / max-luma=1023 / log2-max-poc-lsb=8 / vui-timing-info / vui-hrd-info / slices=1 / no-opt-qp-pps / no-opt-ref-list-length-pps / no-multi-pass-opt-rps / scenecut-bias=0.05 / hist-threshold=0.03 / no-opt-cu-delta-qp / no-aq-motion / no-hdr10 / no-hdr10-opt / no-dhdr10-opt / no-idr-recovery-sei / analysis-reuse-level=0 / analysis-save-reuse-level=0 / analysis-load-reuse-level=0 / scale-factor=0 / refine-intra=0 / refine-inter=0 / refine-mv=1 / refine-ctu-distortion=0 / no-limit-sao / ctu-info=0 / no-lowpass-dct / refine-analysis-type=0 / copy-pic=1 / max-ausize-factor=1.0 / no-dynamic-refine / no-single-sei / no-hevc-aq / no-svt / no-field / qp-adaptation-range=1.00 / scenecut-aware-qp=0conformance-window-offsets / right=0 / bottom=0 / NTMzNTQ= / decoder-max-rate=0 / no-vbv-live-multi-pass
  35. Language                                 : English
  36. Default                                  : Yes
  37. Forced                                   : No
  38. Color range                              : Limited
  39. Color primaries                          : BT.709
  40. Transfer characteristics                 : BT.709
  41. Matrix coefficients                      : BT.709
  42. Audio
  43. ID                                       : 2
  44. Format                                   : DTS XLL
  45. Format/Info                              : Digital Theater Systems
  46. Commercial name                          : DTS-HD Master Audio
  47. Codec ID                                 : A_DTS
  48. Duration                                 : 1 h 49 min
  49. Bit rate mode                            : Variable
  50. Bit rate                                 : 3 652 kb/s
  51. Channel(s)                               : 6 channels
  52. Channel layout                           : C L R Ls Rs LFE
  53. Sampling rate                            : 48.0 kHz
  54. Frame rate                               : 93.750 FPS (512 SPF)
  55. Bit depth                                : 24 bits
  56. Compression mode                         : Lossless
  57. Stream size                              : 2.79 GiB (44%)
  58. Title                                    : English DTS-HD Master Audio 5.1 @ 3652 kbps
  59. Language                                 : English
  60. Default                                  : Yes
  61. Forced                                   : No
  62. Text #1
  63. ID                                       : 3
  64. Format                                   : PGS
  65. Codec ID                                 : S_HDMV/PGS
  66. Codec ID/Info                            : Picture based subtitle format used on BDs/HD-DVDs
  67. Duration                                 : 1 h 41 min
  68. Bit rate                                 : 24.1 kb/s
  69. Count of elements                        : 1930
  70. Stream size                              : 17.5 MiB (0%)
  71. Title                                    : Eng/SUP
  72. Language                                 : English
  73. Default                                  : No
  74. Forced                                   : No
  75. Text #2
  76. ID                                       : 4
  77. Format                                   : PGS
  78. Codec ID                                 : S_HDMV/PGS
  79. Codec ID/Info                            : Picture based subtitle format used on BDs/HD-DVDs
  80. Duration                                 : 1 h 43 min
  81. Bit rate                                 : 33.4 kb/s
  82. Count of elements                        : 2784
  83. Stream size                              : 24.6 MiB (0%)
  84. Title                                    : Eng/SUP  SDH
  85. Language                                 : English
  86. Default                                  : No
  87. Forced                                   : No
  88. Text #3
  89. ID                                       : 5
  90. Format                                   : PGS
  91. Codec ID                                 : S_HDMV/PGS
  92. Codec ID/Info                            : Picture based subtitle format used on BDs/HD-DVDs
  93. Duration                                 : 1 h 47 min
  94. Bit rate                                 : 20.0 kb/s
  95. Count of elements                        : 1812
  96. Stream size                              : 15.4 MiB (0%)
  97. Title                                    : Chs/SUP  原盘简体
  98. Language                                 : Chinese
  99. Default                                  : Yes
  100. Forced                                   : No
  101. Text #4
  102. ID                                       : 6
  103. Format                                   : PGS
  104. Codec ID                                 : S_HDMV/PGS
  105. Codec ID/Info                            : Picture based subtitle format used on BDs/HD-DVDs
  106. Duration                                 : 1 h 47 min
  107. Bit rate                                 : 16.9 kb/s
  108. Count of elements                        : 1808
  109. Stream size                              : 13.0 MiB (0%)
  110. Title                                    : Cht/SUP  原盘繁体
  111. Language                                 : Chinese
  112. Default                                  : No
  113. Forced                                   : No
  114. Menu
  115. 00:00:00.000                             : en:第 01 章
  116. 00:08:25.672                             : en:第 02 章
  117. 00:20:08.999                             : en:第 03 章
  118. 00:29:31.228                             : en:第 04 章
  119. 00:36:07.499                             : en:第 05 章
  120. 00:44:25.371                             : en:第 06 章
  121. 00:52:03.871                             : en:第 07 章
  122. 01:02:20.695                             : en:第 08 章
  123. 01:12:53.619                             : en:第 09 章
  124. 01:23:26.877                             : en:第 10 章
  125. 01:30:14.951                             : en:第 11 章
  126. 01:40:01.871                             : en:第 12 章




下载地址:

Without.Remorse.2021.BluRay.1080p.DTS-HD.MA5.1.x265.10bit-ALT.torrent

BT9527电影天堂 1、BT9527电影天堂提供的BT文件均来源于互联网抓取,只供网友学习交流、技术提升使用。
2、我们遵守BitTorrent点对点协议原则,任何版权问题请联系原资源发布商,我们不处理任何版权纠纷,谢谢!如有争议请联系邮箱:BT9527#hotmail.com(#换成@)
3、如果您发现某页面或地址有错误,请联系站长邮箱BT9527#hotmail.com(#换成@),我们会尽快处理。您的热心是对BT9527电影天堂最大的支持。
4、本站建议去正规影院观看电影以支持电影行业发展。
最新回复 (0)

你可以在 登录 or 注册 后,对此帖发表评论!

返回
发新帖