惊爆轰天雷[简繁英字幕].Wedlock.1991.BluRay.1080p.DTS-HD.MA.2.0.x265.10bit-ALT 10.40GB

版主小s 1天前 29

✔资源类型:暂未分类   ✔电影年份:更 早   ✔电影地区:欧美   ✔电影分类:剧情

◎标  题 惊爆轰天雷
◎译  名 生死搭档 / 偷天大逃杀
◎片  名 Wedlock
◎年  代 1991
◎产  地 美国
◎类  别 剧情 / 动作 / 科幻 / 惊悚 / 犯罪
◎语  言 英语
◎上映日期 1991-09-05
◎IMDb评分 5.9/10 (8546人评价)
◎IMDb链接 https://www.imdb.com/title/tt0103239/
◎豆瓣评分 6.1/10 (119人评价)
◎豆瓣链接 https://movie.douban.com/subject/1303642/
◎片  长 USA: 101 分钟
◎导  演 刘易斯·蒂格 Lewis Teague
◎演  员 查尔斯·沃克 Charles Walker
       澳澜·琼斯 O-Lan Jones
       米密·罗杰斯 Mimi Rogers
       丹尼斯·弗雷斯特 Denis Forest
       伊斯梅尔·伊斯特·卡尔罗 Ismael 'East' Carlo
       格兰德·L·布什 Grand L. Bush
       陈冲 Joan Chen
       丹尼·特雷霍 Danny Trejo
       格伦·普拉默 Glenn Plummer
       斯蒂芬·托布罗斯基 Stephen Tobolowsky
       詹姆斯·瑞马尔 James Remar
       鲁特格尔·哈尔 Rutger Hauer
       贝拉·艾弗里 Belle Avery
       Frederick S. Pierce Frederick S. Pierce
       布兰科·拉斯蒂格 Branko Lustig
       迈克尔·贾弗 Michael Jaffe
       Richard Gibbs Richard Gibbs
       迪特里希·罗曼 Dietrich Lohmann
       卡尔·克雷斯 Carl Kress
       劳里·加芬 Lauri Gaffin
       Veronica Hadfield Veronica Hadfield
       Stephen M. Chudej Stephen M. Chudej
       Bud Davis Bud Davis
       布兰科·拉斯蒂格 Branko Lustig

◎简  介
  精通电子科技的法兰克,与森、露尔三人进行一桩骇人的钻石抢案,事成之后,森与露尔背叛法兰克,害得法兰克失手入狱。被捕后法兰克被关进叫做“未来监狱“的高科技监狱中。这个监狱的特色是男女犯人共囚一室,典狱长来蒂是个不择手段的人,除了血腥和残忍的管制外,                                    
                                未来监狱中是没有警卫,也没有围墙,而只有一对相互监控的项锁,每一位囚犯与囚犯之间,并不知谁与谁是同一组合,若任一方想越狱,或两人相距超过100码,套在他们颈上的夺命箍便会爆炸,令他们粉身碎骨。为了取回赃物,法兰克与囚友翠丝千方百计逃离监狱,并在这个荒凉的海岛监狱中和其他丧心病狂的囚犯进行殊死战斗,直到自己可以成为唯一生存并自由的人……
  1. ##### MediaInfo ######
  2. General
  3. Unique ID                                : 181416111841632284997297925047107925950 (0x887B78E35855F899F1E4844BBC8337BE)
  4. Complete name                            : Wedlock.1991.BluRay.1080p.DTS-HD.MA.2.0.x265.10bit-ALT.mkv
  5. Format                                   : Matroska
  6. Format version                           : Version 4
  7. File size                                : 10.4 GiB
  8. Duration                                 : 1 h 42 min
  9. Overall bit rate mode                    : Variable
  10. Overall bit rate                         : 14.5 Mb/s
  11. Encoded date                             : UTC 2022-02-05 06:02:29
  12. Writing application                      : mkvmerge v49.0.0 ('Sick Of Losing Soulmates') 64-bit
  13. Writing library                          : libebml v1.4.0 + libmatroska v1.6.1
  14. Video
  15. ID                                       : 1
  16. Format                                   : HEVC
  17. Format/Info                              : High Efficiency Video Coding
  18. Format profile                           : Main 10@L5.1@High
  19. Codec ID                                 : V_MPEGH/ISO/HEVC
  20. Duration                                 : 1 h 42 min
  21. Bit rate                                 : 13.6 Mb/s
  22. Width                                    : 1 920 pixels
  23. Height                                   : 1 038 pixels
  24. Display aspect ratio                     : 1.85:1
  25. Frame rate mode                          : Constant
  26. Frame rate                               : 23.976 (24000/1001/53354) FPS
  27. Color space                              : YUV
  28. Chroma subsampling                       : 4:2:0
  29. Bit depth                                : 10 bits
  30. Bits/(Pixel*Frame)                       : 0.284
  31. Stream size                              : 9.73 GiB (94%)
  32. Title                                    : HEVC, x265Main10@L5.1@High, 24/1.001 fps @ 13594 kbps
  33. Writing library                          : x265 3.4+14-gd419c7152:[Windows][GCC 10.2.0][64 bit] 10bit
  34. Encoding settings                        : cpuid=533541111039 / frame-threads=4 / numa-pools=16 / wpp / pmode / pme / no-psnr / no-ssim / log-level=2 / input-csp=1 / input-res=1920x1038 / interlace=0 / total-frames=147372 / level-idc=51 / high-tier=1 / uhd-bd=0 / ref=5 / no-allow-non-conformance / no-repeat-headers / annexb / no-aud / no-hrd / info / hash=0 / no-temporal-layers / open-gop / min-keyint=24 / keyint=240 / gop-lookahead=0 / bframes=6 / b-adapt=2 / b-pyramid / bframe-bias=0 / rc-lookahead=40 / lookahead-slices=0 / NTMzNTQ=uuDQuD2mJt9fsCf / scenecut=40 / hist-scenecut=0 / radl=0 / no-splice / no-intra-refresh / ctu=32 / min-cu-size=8 / no-rect / no-amp / max-tu-size=32 / tu-inter-depth=3 / tu-intra-depth=3 / limit-tu=4 / rdoq-level=2 / dynamic-rd=0.00 / no-ssim-rd / signhide / no-tskip / nr-intra=0 / nr-inter=0 / no-constrained-intra / no-strong-intra-smoothing / max-merge=4 / limit-refs=1 / limit-modes / me=3 / subme=4 / merange=25 / temporal-mvp / no-frame-dup / no-hme / weightp / weightb / no-analyze-src-pics / deblock=-3:-3 / no-sao / no-sao-non-deblock / rd=6 / selective-sao=0 / no-early-skip / rskip / no-fast-intra / no-tskip-fast / no-cu-lossless / b-intra / no-splitrd-skip / rdpenalty=0 / psy-rd=2.00 / psy-rdoq=1.00 / no-rd-refine / no-lossless / cbqpoffs=0 / crqpoffs=0 / rc=crf / crf=20.5 / qcomp=0.65 / qpstep=4 / stats-write=0 / stats-read=0 / vbv-maxrate=80000 / vbv-bufsize=80000 / vbv-init=0.9 / crf-max=0.0 / crf-min=0.0 / ipratio=1.40 / pbratio=1.30 / aq-mode=2 / aq-strength=0.85 / cutree / zone-count=0 / no-strict-cbr / qg-size=32 / no-rc-grain / qpmax=69 / qpmin=0 / no-const-vbv / sar=1 / overscan=0 / videoformat=5 / range=0 / colorprim=1 / transfer=1 / colormatrix=1 / chromaloc=0 / display-window=0 / cll=0,0 / min-luma=0 / max-luma=1023 / log2-max-poc-lsb=8 / vui-timing-info / vui-hrd-info / slices=1 / no-opt-qp-pps / no-opt-ref-list-length-pps / no-multi-pass-opt-rps / scenecut-bias=0.05 / hist-threshold=0.03 / no-opt-cu-delta-qp / no-aq-motion / no-hdr10 / no-hdr10-opt / no-dhdr10-opt / no-idr-recovery-sei / analysis-reuse-level=0 / analysis-save-reuse-level=0 / analysis-load-reuse-level=0 / scale-factor=0 / refine-intra=0 / refine-inter=0 / refine-mv=1 / refine-ctu-distortion=0 / no-limit-sao / ctu-info=0 / no-lowpass-dct / refine-analysis-type=0 / copy-pic=1 / max-ausize-factor=1.0 / no-dynamic-refine / no-single-sei / no-hevc-aq / no-svt / no-field / qp-adaptation-range=1.00 / no-scenecut-aware-qpconformance-window-offsets / right=0 / bottom=0 / NTMzNTQ= / decoder-max-rate=0
  35. Language                                 : English
  36. Default                                  : Yes
  37. Forced                                   : No
  38. Color range                              : Limited
  39. Color primaries                          : BT.709
  40. Transfer characteristics                 : BT.709
  41. Matrix coefficients                      : BT.709
  42. Audio
  43. ID                                       : 2
  44. Format                                   : DTS XLL
  45. Format/Info                              : Digital Theater Systems
  46. Commercial name                          : DTS-HD Master Audio
  47. Codec ID                                 : A_DTS
  48. Duration                                 : 1 h 42 min
  49. Bit rate mode                            : Variable
  50. Bit rate                                 : 867 kb/s
  51. Channel(s)                               : 2 channels
  52. Channel layout                           : L R
  53. Sampling rate                            : 48.0 kHz
  54. Frame rate                               : 93.750 FPS (512 SPF)
  55. Bit depth                                : 16 bits
  56. Compression mode                         : Lossless
  57. Stream size                              : 636 MiB (6%)
  58. Title                                    : English DTS-HD Master Audio 2.0 @ 868 kbps
  59. Language                                 : English
  60. Default                                  : Yes
  61. Forced                                   : No
  62. Text #1
  63. ID                                       : 3
  64. Format                                   : PGS
  65. Codec ID                                 : S_HDMV/PGS
  66. Codec ID/Info                            : Picture based subtitle format used on BDs/HD-DVDs
  67. Duration                                 : 1 h 37 min
  68. Bit rate                                 : 29.7 kb/s
  69. Count of elements                        : 2164
  70. Stream size                              : 20.8 MiB (0%)
  71. Title                                    : Eng/SUP
  72. Language                                 : English
  73. Default                                  : No
  74. Forced                                   : No
  75. Text #2
  76. ID                                       : 4
  77. Format                                   : PGS
  78. Codec ID                                 : S_HDMV/PGS
  79. Codec ID/Info                            : Picture based subtitle format used on BDs/HD-DVDs
  80. Duration                                 : 1 h 37 min
  81. Bit rate                                 : 19.6 kb/s
  82. Count of elements                        : 2120
  83. Stream size                              : 13.7 MiB (0%)
  84. Title                                    : Chs/SUP  简体
  85. Language                                 : Chinese
  86. Default                                  : Yes
  87. Forced                                   : No
  88. Text #3
  89. ID                                       : 5
  90. Format                                   : PGS
  91. Codec ID                                 : S_HDMV/PGS
  92. Codec ID/Info                            : Picture based subtitle format used on BDs/HD-DVDs
  93. Duration                                 : 1 h 37 min
  94. Bit rate                                 : 20.3 kb/s
  95. Count of elements                        : 2120
  96. Stream size                              : 14.2 MiB (0%)
  97. Title                                    : Cht/SUP  繁体
  98. Language                                 : Chinese
  99. Default                                  : No
  100. Forced                                   : No
  101. Menu
  102. 00:00:00.000                             : en:第 01 章
  103. 00:07:06.301                             : en:第 02 章
  104. 00:12:29.874                             : en:第 03 章
  105. 00:18:16.679                             : en:第 04 章
  106. 00:22:37.439                             : en:第 05 章
  107. 00:30:37.252                             : en:第 06 章
  108. 00:38:25.595                             : en:第 07 章
  109. 00:46:14.605                             : en:第 08 章
  110. 00:50:36.450                             : en:第 09 章
  111. 01:00:06.520                             : en:第 10 章
  112. 01:04:57.852                             : en:第 11 章
  113. 01:09:32.960                             : en:第 12 章
  114. 01:17:24.306                             : en:第 13 章
  115. 01:30:23.585                             : en:第 14 章
  116. 01:33:50.083                             : en:第 15 章
  117. 01:39:52.653                             : en:第 16 章




下载地址:

Wedlock.1991.BluRay.1080p.DTS-HD.MA.2.0.x265.10bit-ALT.torrent

BT9527电影天堂 1、BT9527电影天堂提供的BT文件均来源于互联网抓取,只供网友学习交流、技术提升使用。
2、我们遵守BitTorrent点对点协议原则,任何版权问题请联系原资源发布商,我们不处理任何版权纠纷,谢谢!如有争议请联系邮箱:BT9527#hotmail.com(#换成@)
3、如果您发现某页面或地址有错误,请联系站长邮箱BT9527#hotmail.com(#换成@),我们会尽快处理。您的热心是对BT9527电影天堂最大的支持。
4、本站建议去正规影院观看电影以支持电影行业发展。
最新回复 (0)

你可以在 登录 or 注册 后,对此帖发表评论!

返回
发新帖