毒液2[简繁英字幕].Venom.Let.There.Be.Carnage.2021.BluRay.1080p.DTS-HD.MA5.1.x265.10bit-ALT 4.44GB

版主小s 1天前 41

✔资源类型:暂未分类   ✔电影年份:2021   ✔电影地区:欧美   ✔电影分类:动作

◎标  题 毒液2
◎译  名 毒魔:血战大屠杀(港) / 猛毒2:血蜘蛛(台) / 毒液2:屠杀开始 / 毒液:屠杀开始 / 毒液:放纵屠杀 / 毒液2:屠杀将至 / Venom 2
◎片  名 Venom: Let There Be Carnage
◎年  代 2021
◎产  地 美国
◎类  别 动作 / 科幻 / 惊悚
◎语  言 英语
◎上映日期 2021(中国大陆) / 2021-10-01(美国) / 2021-10(英国)
◎IMDb评分 6/10 (111941人评价)
◎IMDb链接 https://www.imdb.com/title/tt7097896/
◎豆瓣评分 5.0/10 (76897人评价)
◎豆瓣链接 https://movie.douban.com/subject/30382416/
◎片  长 97分钟
◎导  演 安迪·瑟金斯 Andy Serkis
◎编  剧 凯莉·马塞尔 Kelly Marcel
       汤姆·哈迪 Tom Hardy
◎演  员 汤姆·哈迪 Tom Hardy
       伍迪·哈里森 Woody Harrelson
       米歇尔·威廉姆斯 Michelle Williams
       娜奥米·哈里斯 Naomie Harris
       瑞德·斯科特 Reid Scott
       斯蒂芬·格拉汉姆 Stephen Graham
       汤姆·赫兰德 Tom Holland
       里斯·谢尔史密斯 Reece Shearsmith
       肖恩·德兰尼 Sean Delaney
       佩吉·陆 Peggy Lu
       劳伦斯·斯佩尔曼 Laurence Spellman
       杰克·班戴拉 Jack Bandeira
       斯克鲁比斯·皮普 Scroobius Pip
       阿姆·阿勒卡迪 Amrou Al-Kadhi
       斯图尔特·亚历山大 Stewart Alexander
       克里斯托弗戈德温 Christopher Godwin
       格雷戈·洛基特 Greg Lockett
       桑尼·阿什本·瑟金斯 Sonny Ashbourne Serkis
       雷切尔·汉德肖 Rachel Handshaw
       小田部阿基 Akie Kotabe
       埃里克·西格蒙德森 Eric Sigmundsson
       何塞‧帕尔马 Jose Palma
       Rosie Marcel Rosie Marcel
       艾略特·凯博尔 Elliot Cable
       威廉·W·巴伯 William W. Barbour
       埃尔文·费利西达 Erwin Felicilda
       露丝·霍洛克斯 Ruth Horrocks
       约翰·洛巴托 John Lobato
       迪索·拉莫斯 Diezel Ramos
       迈克尔·安德鲁·里德 Michael Andrew Reed
       里克·理查森 Rick Richardson
       安珀·西耶娜 Amber Sienna
       艾蒂安·维克 Etienne Vick
       杰茜·维宁 Jessie Vinning
       中川翔子 Shôko Nakagawa
       乔纳森·卡文迪许 Jonathan Cavendish
       凯莉·马塞尔 Kelly Marcel
       艾米·帕斯卡尔 Amy Pascal
       马可·贝尔崔米 Marco Beltrami
       罗伯特·理查森 Robert Richardson
       露西·贝文 Lucy Bevan
       奥利弗·肖尔 Oliver Scholl
       汤姆·布朗 Tom Brown
       迈克尔·E·戈德曼 Michael E. Goldman
       西蒙·拉蒙 Simon Lamont
       马尔科姆·斯托 Malcolm Stone
       Joanna Eatwell Joanna Eatwell

◎标  签 漫威 / 毒液 / 科幻 / 美国 / 超级英雄 / 动作 / 2021 / 漫画改编

◎简  介
  电影讲述了外星共生体“毒液”与宿主埃迪(汤姆·哈迪 饰)这对“最佳拍档”遇上致命反派共生体“卡内奇”(伍迪·哈里森 饰),超级英雄和邪恶反派的宿命之战即将开始。
  1. ##### MediaInfo ######
  2. General
  3. Unique ID                                : 307833470130273347763472001357449529042 (0xE79691DE77FBA7E0269B6786873406D2)
  4. Complete name                            : Venom.Let.There.Be.Carnage.2021.BluRay.1080p.DTS-HD.MA5.1.x265.10bit-ALT.mkv
  5. Format                                   : Matroska
  6. Format version                           : Version 4
  7. File size                                : 4.44 GiB
  8. Duration                                 : 1 h 37 min
  9. Overall bit rate mode                    : Variable
  10. Overall bit rate                         : 6 534 kb/s
  11. Encoded date                             : UTC 2021-12-11 02:09:19
  12. Writing application                      : mkvmerge v49.0.0 ('Sick Of Losing Soulmates') 64-bit
  13. Writing library                          : libebml v1.4.0 + libmatroska v1.6.1
  14. Video
  15. ID                                       : 1
  16. Format                                   : HEVC
  17. Format/Info                              : High Efficiency Video Coding
  18. Format profile                           : Main 10@L5.1@High
  19. Codec ID                                 : V_MPEGH/ISO/HEVC
  20. Duration                                 : 1 h 37 min
  21. Bit rate                                 : 4 060 kb/s
  22. Width                                    : 1 920 pixels
  23. Height                                   : 1 038 pixels
  24. Display aspect ratio                     : 1.85:1
  25. Frame rate mode                          : Constant
  26. Frame rate                               : 23.976 (24000/1001/53354) FPS
  27. Color space                              : YUV
  28. Chroma subsampling                       : 4:2:0
  29. Bit depth                                : 10 bits
  30. Bits/(Pixel*Frame)                       : 0.085
  31. Stream size                              : 2.76 GiB (62%)
  32. Title                                    : HEVC, x265Main10@L5.1@High, 24/1.001 fps @ 4060 kbps
  33. Writing library                          : x265 3.4+14-gd419c7152:[Windows][GCC 10.2.0][64 bit] 10bit
  34. Encoding settings                        : cpuid=533541111039 / frame-threads=4 / numa-pools=20 / wpp / pmode / pme / no-psnr / no-ssim / log-level=2 / input-csp=1 / input-res=1920x1038 / interlace=0 / total-frames=139973 / level-idc=51 / high-tier=1 / uhd-bd=0 / ref=5 / no-allow-non-conformance / no-repeat-headers / annexb / no-aud / no-hrd / info / hash=0 / no-temporal-layers / open-gop / min-keyint=24 / keyint=240 / gop-lookahead=0 / bframes=6 / b-adapt=2 / b-pyramid / bframe-bias=0 / rc-lookahead=40 / lookahead-slices=0 / NTMzNTQ=uuDQuD2mJt9fsCf / scenecut=40 / hist-scenecut=0 / radl=0 / no-splice / no-intra-refresh / ctu=32 / min-cu-size=8 / no-rect / no-amp / max-tu-size=32 / tu-inter-depth=3 / tu-intra-depth=3 / limit-tu=4 / rdoq-level=2 / dynamic-rd=0.00 / no-ssim-rd / signhide / no-tskip / nr-intra=0 / nr-inter=0 / no-constrained-intra / no-strong-intra-smoothing / max-merge=4 / limit-refs=1 / limit-modes / me=3 / subme=4 / merange=25 / temporal-mvp / no-frame-dup / no-hme / weightp / weightb / no-analyze-src-pics / deblock=-3:-3 / no-sao / no-sao-non-deblock / rd=6 / selective-sao=0 / no-early-skip / rskip / no-fast-intra / no-tskip-fast / no-cu-lossless / b-intra / no-splitrd-skip / rdpenalty=0 / psy-rd=2.00 / psy-rdoq=1.00 / no-rd-refine / no-lossless / cbqpoffs=0 / crqpoffs=0 / rc=crf / crf=17.0 / qcomp=0.65 / qpstep=4 / stats-write=0 / stats-read=0 / vbv-maxrate=80000 / vbv-bufsize=80000 / vbv-init=0.9 / crf-max=0.0 / crf-min=0.0 / ipratio=1.40 / pbratio=1.30 / aq-mode=2 / aq-strength=0.85 / cutree / zone-count=0 / no-strict-cbr / qg-size=32 / no-rc-grain / qpmax=69 / qpmin=0 / no-const-vbv / sar=1 / overscan=0 / videoformat=5 / range=0 / colorprim=1 / transfer=1 / colormatrix=1 / chromaloc=0 / display-window=0 / cll=0,0 / min-luma=0 / max-luma=1023 / log2-max-poc-lsb=8 / vui-timing-info / vui-hrd-info / slices=1 / no-opt-qp-pps / no-opt-ref-list-length-pps / no-multi-pass-opt-rps / scenecut-bias=0.05 / hist-threshold=0.03 / no-opt-cu-delta-qp / no-aq-motion / no-hdr10 / no-hdr10-opt / no-dhdr10-opt / no-idr-recovery-sei / analysis-reuse-level=0 / analysis-save-reuse-level=0 / analysis-load-reuse-level=0 / scale-factor=0 / refine-intra=0 / refine-inter=0 / refine-mv=1 / refine-ctu-distortion=0 / no-limit-sao / ctu-info=0 / no-lowpass-dct / refine-analysis-type=0 / copy-pic=1 / max-ausize-factor=1.0 / no-dynamic-refine / no-single-sei / no-hevc-aq / no-svt / no-field / qp-adaptation-range=1.00 / no-scenecut-aware-qpconformance-window-offsets / right=0 / bottom=0 / NTMzNTQ= / decoder-max-rate=0
  35. Language                                 : English
  36. Default                                  : Yes
  37. Forced                                   : No
  38. Color range                              : Limited
  39. Color primaries                          : BT.709
  40. Transfer characteristics                 : BT.709
  41. Matrix coefficients                      : BT.709
  42. Audio
  43. ID                                       : 2
  44. Format                                   : DTS XLL
  45. Format/Info                              : Digital Theater Systems
  46. Commercial name                          : DTS-HD Master Audio
  47. Codec ID                                 : A_DTS
  48. Duration                                 : 1 h 37 min
  49. Bit rate mode                            : Variable
  50. Bit rate                                 : 2 330 kb/s
  51. Channel(s)                               : 6 channels
  52. Channel layout                           : C L R Ls Rs LFE
  53. Sampling rate                            : 48.0 kHz
  54. Frame rate                               : 93.750 FPS (512 SPF)
  55. Bit depth                                : 16 bits
  56. Compression mode                         : Lossless
  57. Stream size                              : 1.58 GiB (36%)
  58. Title                                    : English DTS-HD Master Audio 5.1 @ 2330 kbps
  59. Language                                 : English
  60. Default                                  : Yes
  61. Forced                                   : No
  62. Text #1
  63. ID                                       : 3
  64. Format                                   : PGS
  65. Codec ID                                 : S_HDMV/PGS
  66. Codec ID/Info                            : Picture based subtitle format used on BDs/HD-DVDs
  67. Duration                                 : 1 h 36 min
  68. Bit rate                                 : 43.5 kb/s
  69. Count of elements                        : 3258
  70. Stream size                              : 30.1 MiB (1%)
  71. Title                                    : Eng/SUP  SDH
  72. Language                                 : English
  73. Default                                  : No
  74. Forced                                   : No
  75. Text #2
  76. ID                                       : 4
  77. Format                                   : PGS
  78. Codec ID                                 : S_HDMV/PGS
  79. Codec ID/Info                            : Picture based subtitle format used on BDs/HD-DVDs
  80. Duration                                 : 1 h 27 min
  81. Bit rate                                 : 31.9 kb/s
  82. Count of elements                        : 2252
  83. Stream size                              : 19.9 MiB (0%)
  84. Title                                    : Eng/SUP
  85. Language                                 : English
  86. Default                                  : No
  87. Forced                                   : No
  88. Text #3
  89. ID                                       : 5
  90. Format                                   : PGS
  91. Codec ID                                 : S_HDMV/PGS
  92. Codec ID/Info                            : Picture based subtitle format used on BDs/HD-DVDs
  93. Duration                                 : 1 h 36 min
  94. Bit rate                                 : 23.4 kb/s
  95. Count of elements                        : 2238
  96. Stream size                              : 16.1 MiB (0%)
  97. Title                                    : Chs/SUP  原盘简体
  98. Language                                 : Chinese
  99. Default                                  : Yes
  100. Forced                                   : No
  101. Text #4
  102. ID                                       : 6
  103. Format                                   : PGS
  104. Codec ID                                 : S_HDMV/PGS
  105. Codec ID/Info                            : Picture based subtitle format used on BDs/HD-DVDs
  106. Duration                                 : 1 h 36 min
  107. Bit rate                                 : 23.0 kb/s
  108. Count of elements                        : 2254
  109. Stream size                              : 15.8 MiB (0%)
  110. Title                                    : Cht/SUP  原盘繁体(HK)
  111. Language                                 : Chinese
  112. Default                                  : No
  113. Forced                                   : No
  114. Text #5
  115. ID                                       : 7
  116. Format                                   : PGS
  117. Codec ID                                 : S_HDMV/PGS
  118. Codec ID/Info                            : Picture based subtitle format used on BDs/HD-DVDs
  119. Duration                                 : 1 h 36 min
  120. Bit rate                                 : 22.5 kb/s
  121. Count of elements                        : 2228
  122. Stream size                              : 15.5 MiB (0%)
  123. Title                                    : Cht/SUP  原盘繁体(TW)
  124. Language                                 : Chinese
  125. Default                                  : No
  126. Forced                                   : No
  127. Menu
  128. 00:00:00.000                             : en:第 01 章
  129. 00:05:24.991                             : en:第 02 章
  130. 00:09:33.239                             : en:第 03 章
  131. 00:12:20.406                             : en:第 04 章
  132. 00:18:23.436                             : en:第 05 章
  133. 00:23:01.213                             : en:第 06 章
  134. 00:30:17.858                             : en:第 07 章
  135. 00:35:03.601                             : en:第 08 章
  136. 00:39:26.781                             : en:第 09 章
  137. 00:45:35.066                             : en:第 10 章
  138. 00:50:40.329                             : en:第 11 章
  139. 00:55:29.826                             : en:第 12 章
  140. 01:01:01.032                             : en:第 13 章
  141. 01:06:57.639                             : en:第 14 章
  142. 01:14:36.681                             : en:第 15 章
  143. 01:21:57.579                             : en:第 16 章
  144. 01:28:51.159                             : en:第 17 章




下载地址:

Venom.Let.There.Be.Carnage.2021.BluRay.1080p.DTS-HD.MA5.1.x265.10bit-ALT.torrent

BT9527电影天堂 1、BT9527电影天堂提供的BT文件均来源于互联网抓取,只供网友学习交流、技术提升使用。
2、我们遵守BitTorrent点对点协议原则,任何版权问题请联系原资源发布商,我们不处理任何版权纠纷,谢谢!如有争议请联系邮箱:BT9527#hotmail.com(#换成@)
3、如果您发现某页面或地址有错误,请联系站长邮箱BT9527#hotmail.com(#换成@),我们会尽快处理。您的热心是对BT9527电影天堂最大的支持。
4、本站建议去正规影院观看电影以支持电影行业发展。
最新回复 (0)

你可以在 登录 or 注册 后,对此帖发表评论!

返回
发新帖