正义联盟[国英多音轨/简英字幕].Justice.League.2017.IMAX.UHD.BluRay.2160p.2Audio.TrueHD.Atmos.7.1.x265.10bit.HDR-ALT 22.28GB

版主小s 1天前 27

✔资源类型:BD-4K   ✔电影年份:2017   ✔电影地区:欧美   ✔电影分类:动作

◎标  题 正义联盟
◎译  名 The Justice League Part One / Justice League Mortal / Justice League of America
◎片  名 Justice League
◎年  代 2017
◎产  地 美国
◎类  别 动作 / 科幻 / 奇幻 / 冒险
◎语  言 英语 / 冰岛语 / 俄语
◎上映日期 2017-11-17(美国/中国大陆)
◎IMDb评分 6.1/10 (429636人评价)
◎IMDb链接 https://www.imdb.com/title/tt0974015/
◎豆瓣评分 6.4/10 (284556人评价)
◎豆瓣链接 https://movie.douban.com/subject/2158490/
◎片  长 120分钟
◎导  演 扎克·施奈德 Zack Snyder
◎编  剧 扎克·施奈德 Zack Snyder
       克里斯·特里奥 Chris Terrio
       乔斯·韦登 Joss Whedon
       比尔·芬格 Bill Finger
       鲍勃·凯恩 Bob Kane
       乔·舒斯特 Joe Shuster
       杰里·西格尔 Jerry Siegel
       威廉·马斯顿 William M. Marston
◎演  员 本·阿弗莱克 Ben Affleck
       亨利·卡维尔 Henry Cavill
       盖尔·加朵 Gal Gadot
       埃兹拉·米勒 Ezra Miller
       杰森·莫玛 Jason Momoa
       雷·费舍尔 Ray Fisher
       杰瑞米·艾恩斯 Jeremy Irons
       艾米·亚当斯 Amy Adams
       戴安·琳恩 Diane Lane
       康妮·尼尔森 Connie Nielsen
       J·K·西蒙斯 J.K. Simmons
       塞伦·希德 Ciarán Hinds
       艾梅柏·希尔德 Amber Heard
       乔·莫顿 Joe Morton
       丽莎·洛文·孔斯利 Lisa Loven Kongsli
       英格瓦·埃盖特·西古德松 Ingvar Eggert Sigurðsson
       大卫·休里斯 David Thewlis
       赛吉·康斯坦斯 Sergi Constance
       朱利安·刘易斯·琼斯 Julian Lewis Jones
       奥古斯塔·艾娃·艾伦德斯杜提尔 Ágústa Eva Erlendsdóttir
       迈克尔·麦克埃尔哈顿 Michael McElhatton
       约翰·达格尔什 John Dagleish
       拉腊·德坎罗 Lara Decaro
       理查德·克里弗特 Richard Clifford
       寇布勒·霍尔德布鲁克-史密斯 Kobna Holdbrook-Smith
       弗朗西斯·麦基 Francis Magee
       杜晨·科洛斯 Doutzen Kroes
       布鲁克·恩斯 Brooke Ence
       安·奥戈博莫 Ann Ogbomo
       萨曼莎·乔 Samantha Win
       马克·麦克卢尔 Marc McClure
       吉安皮罗·科格诺利 Gianpiero Cognoli
       杰罗姆·普拉顿 Jérôme Pradon
       奥赖恩·李 Orion Lee
       奥利弗·加茨 Oliver Gatz
       奥利弗·鲍威尔 Oliver Powell
       奥萝尔·劳泽瑞尔 Aurore Lauzeral
       罗莎·埃斯科达 Rosa Escoda
       杨荣凯 Jack Yang
       布鲁斯·约翰逊 Bruce Johnson
       托米·梅 Tomi May
       丹·莫什 Dan Mersh
        Leila Reid
       凯莉·波尔克 Kelly Burke
       加里·A·赫克 Gary A. Hecker
       克莱尔·阿什顿 Claire Ashton
       萨姆·本杰明 Sam Benjamin
       比利·克鲁德普 Billy Crudup
       乔·曼根尼罗 Joe Manganiello
       杰西·艾森伯格 Jesse Eisenberg
       郑恺 Kai Zheng
       罗宾·怀特 Robin Wright
       霍特·麦克卡兰尼 Holt McCallany
       科雷西·克莱门斯 Kiersey Clemons
       丹尼尔·斯蒂森 Daniel Stisen
       埃莉诺·松浦 Eleanor Matsuura
       泰莎·波纳姆·琼斯 Tessa Bonham Jones
       韩银龙 Yinlong Han
       克里斯托弗·诺兰 Christopher Nolan
       本·阿弗莱克 Ben Affleck
       艾玛·托马斯 Emma Thomas
       科特·金元 Curt Kanemoto
       韦斯利·柯勒 Wesley Coller
       丹尼·艾夫曼 Danny Elfman
       西格里德·索巴克·拉伯 Sigrid Solbakk Raabe
       费边·瓦格纳 Fabian Wagner
       迈克尔·威尔金森 Michael Wilkinson
       Jerad Marantz Jerad Marantz
       乔斯·韦登 Joss Whedon
       杰西卡卡林顿 Jessica Carrington
       劳伦·麦卡勒姆 Lauren McCallum
       达里尔·索丘克 Daryl Sawchuk
       艾米丽·皮德 Emily Pead
       扎克·贾德森 Zack Judson
       保罗·哈林 Paul Harling
       朱贝·何塞 Jubey Jose
       英格丽德·克莱尼格 ingrid kleinig

◎标  签 DC / 超级英雄 / 美国 / 科幻 / 漫画改编 / 动作 / 2017 / DCEU

◎简  介
  超人离去,举世陷入哀悼之中。可是世界并未就此和平,恶势力蠢蠢欲动,犯罪气焰重新抬头。更为糟糕的是,来自远古的可怕威胁正渐渐逼近。在很久很久以前,亚特兰蒂斯人、亚马逊人和神族联合对抗邪恶的荒原狼。历经艰苦的斗争,荒原狼最终战败,被迫流放,而他留在地球上的三个盒子则分别由亚特兰蒂斯人、亚马逊人和普通人类看管。如今荒原狼卷土重来,地球被邪恶的阴影笼罩。值此危急关头,神奇女侠戴安娜(盖尔·加朵 Gal Gadot 饰)、蝙蝠侠布鲁斯·韦恩(本·阿弗莱克 Ben Affleck 饰)、海王(杰森·莫玛 Jason Momoa 饰)、闪电侠(埃兹拉·米勒 Ezra Miller 饰)、钢骨维克多·斯通(雷·费舍尔 Ray Fisher 饰)等五名正义战士走到一起。                                    
                                他们结成正义联盟,与荒原狼大军展开殊死之战……
  1. ##### MediaInfo ######
  2. General
  3. Unique ID                                : 29344606268278444470930922363608571322 (0x161390CAA059FAB0AE4B728BC1731DBA)
  4. Complete name                            : Justice.League.2017.IMAX.UHD.BluRay.2160p.2Audio.TrueHD.Atmos.7.1.x265.10bit.HDR-ALT.mkv
  5. Format                                   : Matroska
  6. Format version                           : Version 4
  7. File size                                : 22.3 GiB
  8. Duration                                 : 2 h 0 min
  9. Overall bit rate mode                    : Variable
  10. Overall bit rate                         : 26.6 Mb/s
  11. Encoded date                             : UTC 2020-02-29 14:59:36
  12. Writing application                      : mkvmerge v43.0.0 ('The Quartermaster') 64-bit
  13. Writing library                          : libebml v1.3.10 + libmatroska v1.5.2
  14. Video
  15. ID                                       : 1
  16. Format                                   : HEVC
  17. Format/Info                              : High Efficiency Video Coding
  18. Format profile                           : Main 10@L5.1@High
  19. HDR format                               : SMPTE ST 2086, HDR10 compatible
  20. Codec ID                                 : V_MPEGH/ISO/HEVC
  21. Duration                                 : 2 h 0 min
  22. Bit rate                                 : 21.7 Mb/s
  23. Width                                    : 3 840 pixels
  24. Height                                   : 2 160 pixels
  25. Display aspect ratio                     : 16:9
  26. Frame rate mode                          : Constant
  27. Frame rate                               : 23.976 (24000/1001/53354) FPS
  28. Color space                              : YUV
  29. Chroma subsampling                       : 4:2:0 (Type 2)
  30. Bit depth                                : 10 bits
  31. Bits/(Pixel*Frame)                       : 0.109
  32. Stream size                              : 18.2 GiB (82%)
  33. Title                                    : HEVC, x265Main10@L5.1@High, 24/1.001 fps @ 21669 kbps
  34. Writing library                          : x265 3.0_Au+4-dcbec33bfb0f:[Windows][GCC 8.2.1][64 bit] 10bit
  35. Encoding settings                        : cpuid=533541111039 / frame-threads=4 / numa-pools=12,12 / wpp / pmode / pme / no-psnr / no-ssim / log-level=2 / input-csp=1 / input-res=3840x2160 / interlace=0 / total-frames=172689 / level-idc=51 / high-tier=1 / uhd-bd=0 / ref=4 / no-allow-non-conformance / repeat-headers / annexb / no-aud / hrd / info / hash=0 / no-temporal-layers / no-open-gop / min-keyint=24 / keyint=240 / gop-lookahead=0 / bframes=8 / b-adapt=2 / b-pyramid / bframe-bias=0 / rc-lookahead=25 / lookahead-slices=0 / NTMzNTQ=uuDQuD2mJt9fsCf / scenecut=40 / radl=0 / no-splice / no-intra-refresh / ctu=64 / min-cu-size=8 / no-rect / no-amp / max-tu-size=32 / tu-inter-depth=3 / tu-intra-depth=3 / limit-tu=4 / rdoq-level=2 / dynamic-rd=0.00 / no-ssim-rd / signhide / no-tskip / nr-intra=0 / nr-inter=0 / no-constrained-intra / no-strong-intra-smoothing / max-merge=4 / limit-refs=1 / limit-modes / me=3 / subme=4 / merange=25 / temporal-mvp / weightp / weightb / no-analyze-src-pics / deblock=-3:-3 / no-sao / no-sao-non-deblock / rd=6 / no-early-skip / rskip / no-fast-intra / no-tskip-fast / no-cu-lossless / b-intra / no-splitrd-skip / rdpenalty=0 / psy-rd=2.00 / psy-rdoq=1.00 / no-rd-refine / no-lossless / cbqpoffs=0 / crqpoffs=0 / rc=crf / crf=18.5 / qcomp=0.65 / qpstep=4 / stats-write=0 / stats-read=0 / vbv-maxrate=160000 / vbv-bufsize=160000 / vbv-init=0.9 / crf-max=0.0 / crf-min=0.0 / ipratio=1.30 / pbratio=1.20 / aq-mode=3 / aq-strength=0.85 / cutree / zone-count=0 / no-strict-cbr / qg-size=32 / no-rc-grain / qpmax=69 / qpmin=0 / no-const-vbv / sar=1 / overscan=0 / videoformat=5 / range=0 / colorprim=9 / transfer=16 / colormatrix=9 / chromaloc=1 / chromaloc-top=2 / chromaloc-bottom=2 / display-window=0 / master-display=G(13250,34500)B(7500,3000)R(34000,16000)WP(15635,16450)L(40000000,50) / max-cll=1016,342 / min-luma=0 / max-luma=1023 / log2-max-poc-lsb=8 / vui-timing-info / vui-hrd-info / slices=1 / no-opt-qp-pps / no-opt-ref-list-length-pps / no-multi-pass-opt-rps / scenecut-bias=0.05 / no-opt-cu-delta-qp / no-aq-motion / hdr / hdr-opt / no-dhdr10-opt / no-idr-recovery-sei / analysis-reuse-level=5 / scale-factor=0 / refine-intra=0 / refine-inter=0 / refine-mv=0 / refine-ctu-distortion=0 / no-limit-sao / ctu-info=0 / no-lowpass-dct / refine-analysis-type=0 / copy-pic=1 / max-ausize-factor=1.0 / no-dynamic-refine / no-single-sei / no-hevc-aq / qp-adaptation-range=1.00
  36. Language                                 : English
  37. Default                                  : Yes
  38. Forced                                   : No
  39. Color range                              : Limited
  40. Color primaries                          : BT.2020
  41. Transfer characteristics                 : PQ
  42. Matrix coefficients                      : BT.2020 non-constant
  43. Mastering display color primaries        : Display P3
  44. Mastering display luminance              : min: 0.0050 cd/m2, max: 4000 cd/m2
  45. Maximum Content Light Level              : 1016 cd/m2
  46. Maximum Frame-Average Light Level        : 342 cd/m2
  47. Audio #1
  48. ID                                       : 2
  49. Format                                   : MLP FBA 16-ch
  50. Format/Info                              : Meridian Lossless Packing FBA with 16-channel presentation
  51. Commercial name                          : Dolby TrueHD with Dolby Atmos
  52. Codec ID                                 : A_TRUEHD
  53. Duration                                 : 2 h 0 min
  54. Bit rate mode                            : Variable
  55. Bit rate                                 : 3 879 kb/s
  56. Maximum bit rate                         : 6 366 kb/s
  57. Channel(s)                               : 8 channels
  58. Channel layout                           : L R C LFE Ls Rs Lb Rb
  59. Sampling rate                            : 48.0 kHz
  60. Frame rate                               : 1 200.000 FPS (40 SPF)
  61. Compression mode                         : Lossless
  62. Stream size                              : 3.25 GiB (15%)
  63. Title                                    : English Dolby TrueHD 7.1 (Atmos) @ 4327 kbps
  64. Language                                 : English
  65. Default                                  : Yes
  66. Forced                                   : No
  67. Number of dynamic objects                : 11
  68. Bed channel count                        : 1 channel
  69. Bed channel configuration                : LFE
  70. Audio #2
  71. ID                                       : 3
  72. Format                                   : AC-3
  73. Format/Info                              : Audio Coding 3
  74. Commercial name                          : Dolby Digital
  75. Codec ID                                 : A_AC3
  76. Duration                                 : 2 h 0 min
  77. Bit rate mode                            : Constant
  78. Bit rate                                 : 448 kb/s
  79. Channel(s)                               : 6 channels
  80. Channel layout                           : L R C LFE Ls Rs
  81. Sampling rate                            : 48.0 kHz
  82. Frame rate                               : 31.250 FPS (1536 SPF)
  83. Compression mode                         : Lossy
  84. Stream size                              : 385 MiB (2%)
  85. Title                                    : English Dolby Digital Audio 5.1 @ 640 kbps
  86. Language                                 : English
  87. Service kind                             : Complete Main
  88. Default                                  : No
  89. Forced                                   : No
  90. Audio #3
  91. ID                                       : 4
  92. Format                                   : AC-3
  93. Format/Info                              : Audio Coding 3
  94. Commercial name                          : Dolby Digital
  95. Codec ID                                 : A_AC3
  96. Duration                                 : 2 h 0 min
  97. Bit rate mode                            : Constant
  98. Bit rate                                 : 448 kb/s
  99. Channel(s)                               : 6 channels
  100. Channel layout                           : L R C LFE Ls Rs
  101. Sampling rate                            : 48.0 kHz
  102. Frame rate                               : 31.250 FPS (1536 SPF)
  103. Compression mode                         : Lossy
  104. Stream size                              : 385 MiB (2%)
  105. Title                                    : Mandarin Dolby Digital Audio 5.1 @ 448 kbps  原盘国语
  106. Language                                 : Chinese
  107. Service kind                             : Complete Main
  108. Default                                  : No
  109. Forced                                   : No
  110. Text #1
  111. ID                                       : 5
  112. Format                                   : PGS
  113. Codec ID                                 : S_HDMV/PGS
  114. Codec ID/Info                            : Picture based subtitle format used on BDs/HD-DVDs
  115. Duration                                 : 1 h 59 min
  116. Bit rate                                 : 29.0 kb/s
  117. Count of elements                        : 3014
  118. Stream size                              : 24.7 MiB (0%)
  119. Title                                    : Eng/SUP
  120. Language                                 : English
  121. Default                                  : No
  122. Forced                                   : No
  123. Text #2
  124. ID                                       : 6
  125. Format                                   : PGS
  126. Codec ID                                 : S_HDMV/PGS
  127. Codec ID/Info                            : Picture based subtitle format used on BDs/HD-DVDs
  128. Duration                                 : 1 h 59 min
  129. Bit rate                                 : 25.3 kb/s
  130. Count of elements                        : 2290
  131. Stream size                              : 21.7 MiB (0%)
  132. Title                                    : Chs/SUP  原盘简体
  133. Language                                 : Chinese
  134. Default                                  : Yes
  135. Forced                                   : No
  136. Menu
  137. 00:00:00.000                             : en:第 01 章
  138. 00:10:56.155                             : en:第 02 章
  139. 00:19:16.489                             : en:第 03 章
  140. 00:30:41.673                             : en:第 04 章
  141. 00:40:19.667                             : en:第 05 章
  142. 00:49:56.535                             : en:第 06 章
  143. 01:01:26.892                             : en:第 07 章
  144. 01:09:41.552                             : en:第 08 章
  145. 01:19:18.587                             : en:第 09 章
  146. 01:30:34.512                             : en:第 10 章
  147. 01:40:33.569                             : en:第 11 章
  148. 01:48:43.058                             : en:第 12 章




下载地址:

Justice.League.2017.IMAX.UHD.BluRay.2160p.2Audio.TrueHD.Atmos.7.1.x265.10bit.HDR.torrent

BT9527电影天堂 1、BT9527电影天堂提供的BT文件均来源于互联网抓取,只供网友学习交流、技术提升使用。
2、我们遵守BitTorrent点对点协议原则,任何版权问题请联系原资源发布商,我们不处理任何版权纠纷,谢谢!如有争议请联系邮箱:BT9527#hotmail.com(#换成@)
3、如果您发现某页面或地址有错误,请联系站长邮箱BT9527#hotmail.com(#换成@),我们会尽快处理。您的热心是对BT9527电影天堂最大的支持。
4、本站建议去正规影院观看电影以支持电影行业发展。
最新回复 (0)

你可以在 登录 or 注册 后,对此帖发表评论!

返回
发新帖