侏罗纪世界[共2部合集][繁英字幕].Jurassic.World.1-2.2015-2018.UHD.BluRay.2160p.DTS-X.MA.7.1.x265.10bit.HDR-ALT 38.99GB

版主小s 1天前 34

✔资源类型:BD-4K   ✔电影年份:合 集   ✔电影地区:欧美   ✔电影分类:合集

◎标  题 侏罗纪世界
◎译  名 侏罗纪公园4 / Jurassic Park IV / Jurassic Park 4
◎片  名 Jurassic World
◎年  代 2015
◎产  地 美国
◎类  别 动作 / 科幻 / 冒险
◎语  言 英语
◎上映日期 2015-06-10(中国大陆) / 2015-06-12(美国)
◎IMDb链接 https://www.imdb.com/title/tt0369610/
◎豆瓣链接 https://movie.douban.com/subject/10440138/
◎片  长 124分钟

◎标  签 科幻 / 恐龙 / 美国 / 冒险 / 动作 / 2015 / 惊悚 / 灾难

◎简  介
    21世纪,曾经诞生过第一只恐龙的努布拉岛,在经历了一系列的惨剧之后迎来新的时代,如今这里经马斯拉尼之手建成了规模宏大的主题公园“侏罗纪世界”,数量繁多的远古生物每天都吸引数以万计的游客前来一饱眼福。为了吸引更多的游客,公司授意创意实验室采用不同动物的基因创造了集力量、速度和智慧于一体的暴虐霸王龙。作为负责人的克莱尔(布莱丝·达拉斯·霍华德 Bryce Dallas Howard 饰)原打算请专门负责迅猛龙的欧文·格雷迪(克里斯·普拉特 Chris Pratt 饰)评估暴虐霸王龙的防护设施,谁知这头可怕的怪物竟然骗过了精密仪器的监视和人类的眼睛,以迅雷不及掩耳的速度逃到了外面,随后对所见的一切生物展开了无差别的血腥屠杀。                                    
                                  原本快乐祥和的公园乱作一团,克莱尔必须深入危险之地救出两个被困的外甥,而欧文则不可避免地带着他的迅猛龙猎人团队迎战史无前例的的可怕对手……



  1. 合集文件列表:

  2. 1.Jurassic.World.2015.UHD.BluRay.2160p.DTS-X.MA.7.1.x265.10bit.HDR-ALT.mkv 28.69GB

  3. 2.Jurassic.World.Fallen.Kingdom.2018.UHD.BluRay.2160p.DTS-X.MA.7.1.x265.10bit.HDR-ALT.mkv 10.31GB





  1. ##### MediaInfo ######
  2. General
  3. Unique ID                                : 107847147094605906567721736255627387377 (0x51229AE1522497BAB63F78B5FFECE1F1)
  4. Complete name                            : Jurassic.World.2015.UHD.BluRay.2160p.DTS-X.MA.7.1.x265.10bit.HDR-ALT.mkv
  5. Format                                   : Matroska
  6. Format version                           : Version 4
  7. File size                                : 28.7 GiB
  8. Duration                                 : 2 h 4 min
  9. Overall bit rate mode                    : Variable
  10. Overall bit rate                         : 33.0 Mb/s
  11. Encoded date                             : UTC 2019-10-23 10:24:02
  12. Writing application                      : mkvmerge v38.0.0 ('The Silent Type') 64-bit
  13. Writing library                          : libebml v1.3.9 + libmatroska v1.5.2
  14. Video
  15. ID                                       : 1
  16. Format                                   : HEVC
  17. Format/Info                              : High Efficiency Video Coding
  18. Format profile                           : Main 10@L5.1@High
  19. HDR format                               : SMPTE ST 2086, HDR10 compatible
  20. Codec ID                                 : V_MPEGH/ISO/HEVC
  21. Duration                                 : 2 h 4 min
  22. Bit rate                                 : 29.9 Mb/s
  23. Width                                    : 3 840 pixels
  24. Height                                   : 1 920 pixels
  25. Display aspect ratio                     : 2.000
  26. Frame rate mode                          : Constant
  27. Frame rate                               : 23.976 (24000/1001/53354) FPS
  28. Color space                              : YUV
  29. Chroma subsampling                       : 4:2:0 (Type 2)
  30. Bit depth                                : 10 bits
  31. Bits/(Pixel*Frame)                       : 0.169
  32. Stream size                              : 26.0 GiB (91%)
  33. Title                                    : HEVC, x265Main10@L5.1@High, 24/1.001 fps @ 29883 kbps
  34. Writing library                          : x265 3.0_Au+4-dcbec33bfb0f:[Windows][GCC 8.2.1][64 bit] 10bit
  35. Encoding settings                        : cpuid=533541111039 / frame-threads=4 / numa-pools=12,12 / wpp / pmode / pme / no-psnr / no-ssim / log-level=2 / input-csp=1 / input-res=3840x1920 / interlace=0 / total-frames=178957 / level-idc=51 / high-tier=1 / uhd-bd=0 / ref=4 / no-allow-non-conformance / repeat-headers / annexb / no-aud / hrd / info / hash=0 / no-temporal-layers / no-open-gop / min-keyint=24 / keyint=240 / gop-lookahead=0 / bframes=8 / b-adapt=2 / b-pyramid / bframe-bias=0 / rc-lookahead=25 / lookahead-slices=0 / NTMzNTQ=uuDQuD2mJt9fsCf / scenecut=40 / radl=0 / no-splice / no-intra-refresh / ctu=64 / min-cu-size=8 / no-rect / no-amp / max-tu-size=32 / tu-inter-depth=3 / tu-intra-depth=3 / limit-tu=4 / rdoq-level=2 / dynamic-rd=0.00 / no-ssim-rd / signhide / no-tskip / nr-intra=0 / nr-inter=0 / no-constrained-intra / no-strong-intra-smoothing / max-merge=4 / limit-refs=1 / limit-modes / me=3 / subme=4 / merange=25 / temporal-mvp / weightp / weightb / no-analyze-src-pics / deblock=-3:-3 / no-sao / no-sao-non-deblock / rd=6 / no-early-skip / rskip / no-fast-intra / no-tskip-fast / no-cu-lossless / b-intra / no-splitrd-skip / rdpenalty=0 / psy-rd=2.00 / psy-rdoq=1.00 / no-rd-refine / no-lossless / cbqpoffs=0 / crqpoffs=0 / rc=crf / crf=20.0 / qcomp=0.65 / qpstep=4 / stats-write=0 / stats-read=0 / vbv-maxrate=160000 / vbv-bufsize=160000 / vbv-init=0.9 / crf-max=0.0 / crf-min=0.0 / ipratio=1.30 / pbratio=1.20 / aq-mode=3 / aq-strength=0.85 / cutree / zone-count=0 / no-strict-cbr / qg-size=32 / no-rc-grain / qpmax=69 / qpmin=0 / no-const-vbv / sar=1 / overscan=0 / videoformat=5 / range=0 / colorprim=9 / transfer=16 / colormatrix=9 / chromaloc=1 / chromaloc-top=2 / chromaloc-bottom=2 / display-window=0 / master-display=G(13250,34500)B(7500,3000)R(34000,16000)WP(15635,16450)L(10000000,50) / max-cll=1000,427 / min-luma=0 / max-luma=1023 / log2-max-poc-lsb=8 / vui-timing-info / vui-hrd-info / slices=1 / no-opt-qp-pps / no-opt-ref-list-length-pps / no-multi-pass-opt-rps / scenecut-bias=0.05 / no-opt-cu-delta-qp / no-aq-motion / hdr / hdr-opt / no-dhdr10-opt / no-idr-recovery-sei / analysis-reuse-level=5 / scale-factor=0 / refine-intra=0 / refine-inter=0 / refine-mv=0 / refine-ctu-distortion=0 / no-limit-sao / ctu-info=0 / no-lowpass-dct / refine-analysis-type=0 / copy-pic=1 / max-ausize-factor=1.0 / no-dynamic-refine / no-single-sei / no-hevc-aq / qp-adaptation-range=1.00
  36. Language                                 : English
  37. Default                                  : Yes
  38. Forced                                   : No
  39. Color range                              : Limited
  40. Color primaries                          : BT.2020
  41. Transfer characteristics                 : PQ
  42. Matrix coefficients                      : BT.2020 non-constant
  43. Mastering display color primaries        : Display P3
  44. Mastering display luminance              : min: 0.0050 cd/m2, max: 1000 cd/m2
  45. Maximum Content Light Level              : 1000 cd/m2
  46. Maximum Frame-Average Light Level        : 427 cd/m2
  47. Audio
  48. ID                                       : 2
  49. Format                                   : DTS XLL X
  50. Format/Info                              : Digital Theater Systems
  51. Commercial name                          : DTS-HD Master Audio
  52. Codec ID                                 : A_DTS
  53. Duration                                 : 2 h 4 min
  54. Bit rate mode                            : Variable
  55. Bit rate                                 : 3 052 kb/s
  56. Channel(s)                               : 8 channels
  57. Channel(s)_Original                      : Object Based
  58. ChannelLayout_Original                   : Object Based
  59. Sampling rate                            : 48.0 kHz
  60. Frame rate                               : 93.750 FPS (512 SPF)
  61. Bit depth                                : 24 bits
  62. Stream size                              : 2.65 GiB (9%)
  63. Title                                    : English DTS:X Master Audio 7.1 @ 3052 kbps
  64. Language                                 : English
  65. Default                                  : Yes
  66. Forced                                   : No
  67. Text #1
  68. ID                                       : 3
  69. Format                                   : PGS
  70. Codec ID                                 : S_HDMV/PGS
  71. Codec ID/Info                            : Picture based subtitle format used on BDs/HD-DVDs
  72. Duration                                 : 1 h 53 min
  73. Bit rate                                 : 36.1 kb/s
  74. Count of elements                        : 2989
  75. Stream size                              : 29.4 MiB (0%)
  76. Title                                    : Eng/SUP
  77. Language                                 : English
  78. Default                                  : No
  79. Forced                                   : No
  80. Text #2
  81. ID                                       : 4
  82. Format                                   : PGS
  83. Codec ID                                 : S_HDMV/PGS
  84. Codec ID/Info                            : Picture based subtitle format used on BDs/HD-DVDs
  85. Duration                                 : 2 h 3 min
  86. Bit rate                                 : 19.2 kb/s
  87. Count of elements                        : 2452
  88. Stream size                              : 16.9 MiB (0%)
  89. Title                                    : Cht/SUP  原盘繁体(HK)
  90. Language                                 : Chinese
  91. Default                                  : No
  92. Forced                                   : No
  93. Text #3
  94. ID                                       : 5
  95. Format                                   : PGS
  96. Codec ID                                 : S_HDMV/PGS
  97. Codec ID/Info                            : Picture based subtitle format used on BDs/HD-DVDs
  98. Duration                                 : 2 h 2 min
  99. Bit rate                                 : 21.8 kb/s
  100. Count of elements                        : 2546
  101. Stream size                              : 19.1 MiB (0%)
  102. Title                                    : Cht/SUP  原盘繁体(TW)
  103. Language                                 : Chinese
  104. Default                                  : Yes
  105. Forced                                   : No
  106. Menu
  107. 00:00:00.000                             : en:第 01 章
  108. 00:06:59.169                             : en:第 02 章
  109. 00:11:01.828                             : en:第 03 章
  110. 00:18:28.441                             : en:第 04 章
  111. 00:25:34.867                             : en:第 05 章
  112. 00:31:20.837                             : en:第 06 章
  113. 00:39:23.861                             : en:第 07 章
  114. 00:44:07.854                             : en:第 08 章
  115. 00:48:57.226                             : en:第 09 章
  116. 00:55:51.056                             : en:第 10 章
  117. 01:01:21.344                             : en:第 11 章
  118. 01:09:50.561                             : en:第 12 章
  119. 01:15:25.479                             : en:第 13 章
  120. 01:23:51.860                             : en:第 14 章
  121. 01:30:14.701                             : en:第 15 章
  122. 01:36:45.425                             : en:第 16 章
  123. 01:41:15.653                             : en:第 17 章
  124. 01:47:35.282                             : en:第 18 章
  125. 01:53:06.029                             : en:第 19 章
  126. 01:55:37.556                             : en:第 20 章




下载地址:

Jurassic.World.1-2.2015-2018.UHD.BluRay.2160p.DTS-X.MA.7.1.x265.10bit.HDR-ALT.torrent

BT9527电影天堂 1、BT9527电影天堂提供的BT文件均来源于互联网抓取,只供网友学习交流、技术提升使用。
2、我们遵守BitTorrent点对点协议原则,任何版权问题请联系原资源发布商,我们不处理任何版权纠纷,谢谢!如有争议请联系邮箱:BT9527#hotmail.com(#换成@)
3、如果您发现某页面或地址有错误,请联系站长邮箱BT9527#hotmail.com(#换成@),我们会尽快处理。您的热心是对BT9527电影天堂最大的支持。
4、本站建议去正规影院观看电影以支持电影行业发展。
最新回复 (0)

你可以在 登录 or 注册 后,对此帖发表评论!

返回
发新帖