侏罗纪公园[共3部合集][国英多音轨/简繁英双语字幕].Jurassic.Park.1-3.1993-2001.UHD.BluRay.2160p.2Audio.DTS-X.MA.7.1.x265.10bit.HDR-ALT 73.85GB

版主小s 1天前 24

✔资源类型:BD-4K   ✔电影年份:合 集   ✔电影地区:欧美   ✔电影分类:合集

◎标  题 侏罗纪公园
◎译  名 Jurassic Park 3D
◎片  名 Jurassic Park
◎年  代 1993
◎产  地 美国
◎类  别 科幻 / 惊悚 / 冒险
◎语  言 英语 / 西班牙语
◎上映日期 2013-08-20(中国大陆 3D) / 1993-06-11(美国) / 2013-04-05(美国)
◎IMDb评分 8.1/10 (919316人评价)
◎IMDb链接 https://www.imdb.com/title/tt0107290/
◎豆瓣评分 8.2/10 (276924人评价)
◎豆瓣链接 https://movie.douban.com/subject/1292523/
◎片  长 127 分钟
◎导  演 史蒂文·斯皮尔伯格 Steven Spielberg
◎编  剧 迈克尔·克莱顿 Michael Crichton
       大卫·凯普 David Koepp
◎演  员 山姆·尼尔 Sam Neill
       劳拉·邓恩 Laura Dern
       杰夫·高布伦 Jeff Goldblum
       理查德·阿滕伯勒 Richard Attenborough
       鲍勃·佩克 Bob Peck
       马丁·费雷罗 Martin Ferrero
       约瑟夫·梅泽罗 Joseph Mazzello
       阿丽亚娜·理查兹 Ariana Richards
       塞缪尔·杰克逊 Samuel L. Jackson
       黄荣亮 B.D. Wong
       韦恩·奈特 Wayne Knight
       杰拉尔德·R·莫伦 Gerald R. Molen
       米盖尔·桑多瓦尔 Miguel Sandoval
       迪恩·康迪 Dean Cundey
       罗伊·谢德 Roy Scheider
       Whit Hertford Whit Hertford
       Gary Rodriguez Gary Rodriguez
       Jophery C. Brown Jophery C. Brown
       理查德·基利 Richard Kiley
       Brad M. Bucklin Brad M. Bucklin
       克里斯托弗·约翰·菲尔兹 Christopher John Fields
       布莱恩·斯莫兹 Brian Smrz
       杰拉尔德·R·莫伦 Gerald R. Molen
       凯瑟琳·肯尼迪 Kathleen Kennedy
       柯林·威尔逊 Colin Wilson
       约翰·威廉姆斯 John Williams
       迪恩·康迪 Dean Cundey
       迈克尔·卡恩 Michael Kahn
       珍妮特·希尔森 Janet Hirshenson
       斯科特·W·莱斯利 Scott W. Leslie
       William James Teegarden William James Teegarden
       约翰·贝尔 John Bell
       斯坦·温斯顿 Stan Winston
       瑞克·卡特 Rick Carter
       琳达·古拉西希 Lynda Gurasich
       加里·海姆斯 Gary Hymes
       马可·A·Z·迪普 Mark A.Z. Dippé
       Patrick T. Myers Patrick T. Myers
       乔治·墨菲 George Murphy
       Jim Morris Jim Morris
       吉姆·米切尔 Jim Mitchell
       Mark S. Miller Mark S. Miller
       Fred Meyers Fred Meyers
       乔·莱特瑞 Joe Letteri
       洛尔恩·彼得森 Lorne Peterson
       潘国瑜 Ellen Poon
       Tom St. Amand Tom St. Amand
       詹姆斯·斯特劳斯 James Straus
       上杉佑子 Yusei Uesugi
       Don Waller Don Waller
       Judith Weaver Judith Weaver
       史蒂夫·威廉姆斯 Steve 'Spaz' Williams
       约翰·埃利斯 John Ellis
       克雷格·海斯 Craig Hayes
       Timothy Greenwood Timothy Greenwood
       芭芭拉·布伦南 Barbara Brennan
       Mike Ellis Mike Ellis
       埃里克·阿姆斯特朗 Eric Armstrong
       小约翰·安德鲁·伯顿 John Andrew Berton Jr.
       Mike Bienstock Mike Bienstock
       格雷格·巴特勒 Greg Butler
       Geoff Campbell Geoff Campbell
       Michael Conte Michael Conte
       兰迪·杜特拉 Randy Dutra
       史蒂夫·高利 Steve Gawley
       克里斯托弗·埃文斯 Christopher Evans
       斯科特·法勒   Scott Farrar

◎标  签 科幻 / 斯皮尔伯格 / 美国 / 恐龙 / 侏罗纪公园 / 经典 / 冒险 / 1993

◎简  介
  哈蒙德(理查德•阿滕伯勒 Richard Attenborough  饰)立志要建立一个非同寻常的公园:恐龙将是这个公园的主角。他把众多科学家收归旗下,利用琥珀里面困住的远古蚊子体内的血液,提取出恐龙的基因信息,利用这些信息培育繁殖恐龙。结果如愿以偿,他把怒布拉岛建立成了一个恐龙公园,坚信可以从中赚取大钱。然而,科学家们则忧心忡忡。                                    
                                不幸的事情果然发生了。虽然公园有电脑系统管理,但却因为被员工破坏而造成了无法挽救的失控:所有的恐龙逃出了控制区,人们纷纷逃窜却逃不过恐龙的魔爪。恐龙自相残杀,人们亦死难无数,最后幸存者寥寥,只得四人逃出生天。怒布拉岛上空弥漫着恐怖的气息。



  1. 合集文件列表:

  2. 1.Jurassic.Park.1.1993.UHD.BluRay.2160p.2Audio.DTS-X.MA.7.1.x265.10bit.HDR-ALT.mkv 31.52GB

  3. 2.Jurassic.Park.2.1997.UHD.BluRay.2160p.2Audio.DTS-X.MA.7.1.x265.10bit.HDR-ALT.mkv 27.02GB

  4. 3.Jurassic.Park.3.2001.UHD.BluRay.2160p.2Audio.DTS-X.MA.7.1.x265.10bit.HDR-ALT.mkv 15.30GB





  1. ##### MediaInfo ######
  2. General
  3. Unique ID                                : 53170288066016532231538605445809923312 (0x2800399931A47E0857A367252F5364F0)
  4. Complete name                            : Jurassic.Park.1.1993.UHD.BluRay.2160p.2Audio.DTS-X.MA.7.1.x265.10bit.HDR-ALT.mkv
  5. Format                                   : Matroska
  6. Format version                           : Version 4
  7. File size                                : 31.5 GiB
  8. Duration                                 : 2 h 6 min
  9. Overall bit rate mode                    : Variable
  10. Overall bit rate                         : 35.7 Mb/s
  11. Encoded date                             : UTC 2020-10-25 01:50:28
  12. Writing application                      : mkvmerge v49.0.0 ('Sick Of Losing Soulmates') 64-bit
  13. Writing library                          : libebml v1.4.0 + libmatroska v1.6.1
  14. Video
  15. ID                                       : 1
  16. Format                                   : HEVC
  17. Format/Info                              : High Efficiency Video Coding
  18. Format profile                           : Main 10@L5.1@High
  19. HDR format                               : SMPTE ST 2086, HDR10 compatible
  20. Codec ID                                 : V_MPEGH/ISO/HEVC
  21. Duration                                 : 2 h 6 min
  22. Bit rate                                 : 27.9 Mb/s
  23. Width                                    : 3 840 pixels
  24. Height                                   : 2 076 pixels
  25. Display aspect ratio                     : 1.85:1
  26. Frame rate mode                          : Constant
  27. Frame rate                               : 23.976 (24000/1001/53354) FPS
  28. Color space                              : YUV
  29. Chroma subsampling                       : 4:2:0 (Type 2)
  30. Bit depth                                : 10 bits
  31. Bits/(Pixel*Frame)                       : 0.146
  32. Stream size                              : 24.6 GiB (78%)
  33. Title                                    : HEVC, x265Main10@L5.1@High, 24/1.001 fps @ 27865 kbps
  34. Writing library                          : x265 3.4+14-gd419c7152:[Windows][GCC 10.2.0][64 bit] 10bit
  35. Encoding settings                        : cpuid=533541111039 / frame-threads=6 / numa-pools=44,44 / wpp / pmode / pme / no-psnr / no-ssim / log-level=2 / input-csp=1 / input-res=3840x2076 / interlace=0 / total-frames=181930 / level-idc=51 / high-tier=1 / uhd-bd=0 / ref=4 / no-allow-non-conformance / repeat-headers / annexb / no-aud / hrd / info / hash=0 / no-temporal-layers / no-open-gop / min-keyint=24 / keyint=240 / gop-lookahead=0 / bframes=8 / b-adapt=2 / b-pyramid / bframe-bias=0 / rc-lookahead=25 / lookahead-slices=0 / NTMzNTQ=uuDQuD2mJt9fsCf / scenecut=40 / hist-scenecut=0 / radl=0 / no-splice / no-intra-refresh / ctu=64 / min-cu-size=8 / no-rect / no-amp / max-tu-size=32 / tu-inter-depth=3 / tu-intra-depth=3 / limit-tu=4 / rdoq-level=2 / dynamic-rd=0.00 / no-ssim-rd / signhide / no-tskip / nr-intra=0 / nr-inter=0 / no-constrained-intra / no-strong-intra-smoothing / max-merge=4 / limit-refs=1 / limit-modes / me=3 / subme=4 / merange=25 / temporal-mvp / no-frame-dup / no-hme / weightp / weightb / no-analyze-src-pics / deblock=-3:-3 / no-sao / no-sao-non-deblock / rd=6 / selective-sao=0 / no-early-skip / rskip / no-fast-intra / no-tskip-fast / no-cu-lossless / b-intra / no-splitrd-skip / rdpenalty=0 / psy-rd=2.00 / psy-rdoq=1.00 / no-rd-refine / no-lossless / cbqpoffs=0 / crqpoffs=0 / rc=crf / crf=19.5 / qcomp=0.65 / qpstep=4 / stats-write=0 / stats-read=0 / vbv-maxrate=160000 / vbv-bufsize=160000 / vbv-init=0.9 / crf-max=0.0 / crf-min=0.0 / ipratio=1.30 / pbratio=1.20 / aq-mode=3 / aq-strength=0.85 / cutree / zone-count=0 / no-strict-cbr / qg-size=32 / no-rc-grain / qpmax=69 / qpmin=0 / no-const-vbv / sar=1 / overscan=0 / videoformat=5 / range=0 / colorprim=9 / transfer=16 / colormatrix=9 / chromaloc=1 / chromaloc-top=2 / chromaloc-bottom=2 / display-window=0 / master-display=G(13250,34500)B(7500,3000)R(34000,16000)WP(15635,16450)L(10000000,50) / cll=910,101 / min-luma=0 / max-luma=1023 / log2-max-poc-lsb=8 / vui-timing-info / vui-hrd-info / slices=1 / no-opt-qp-pps / no-opt-ref-list-length-pps / no-multi-pass-opt-rps / scenecut-bias=0.05 / hist-threshold=0.03 / no-opt-cu-delta-qp / no-aq-motion / hdr10 / hdr10-opt / no-dhdr10-opt / no-idr-recovery-sei / analysis-reuse-level=0 / analysis-save-reuse-level=0 / analysis-load-reuse-level=0 / scale-factor=0 / refine-intra=0 / refine-inter=0 / refine-mv=1 / refine-ctu-distortion=0 / no-limit-sao / ctu-info=0 / no-lowpass-dct / refine-analysis-type=0 / copy-pic=1 / max-ausize-factor=1.0 / no-dynamic-refine / no-single-sei / no-hevc-aq / no-svt / no-field / qp-adaptation-range=1.00 / no-scenecut-aware-qpconformance-window-offsets / right=0 / bottom=0 / NTMzNTQ= / decoder-max-rate=0
  36. Language                                 : English
  37. Default                                  : Yes
  38. Forced                                   : No
  39. Color range                              : Limited
  40. Color primaries                          : BT.2020
  41. Transfer characteristics                 : PQ
  42. Matrix coefficients                      : BT.2020 non-constant
  43. Mastering display color primaries        : Display P3
  44. Mastering display luminance              : min: 0.0050 cd/m2, max: 1000 cd/m2
  45. Maximum Content Light Level              : 910 cd/m2
  46. Maximum Frame-Average Light Level        : 101 cd/m2
  47. Audio #1
  48. ID                                       : 2
  49. Format                                   : DTS XLL X
  50. Format/Info                              : Digital Theater Systems
  51. Commercial name                          : DTS-HD Master Audio
  52. Codec ID                                 : A_DTS
  53. Duration                                 : 2 h 6 min
  54. Bit rate mode                            : Variable
  55. Bit rate                                 : 5 224 kb/s
  56. Channel(s)                               : 8 channels
  57. Channel(s)_Original                      : Object Based
  58. ChannelLayout_Original                   : Object Based
  59. Sampling rate                            : 48.0 kHz
  60. Frame rate                               : 93.750 FPS (512 SPF)
  61. Bit depth                                : 24 bits
  62. Stream size                              : 4.62 GiB (15%)
  63. Title                                    : English DTS:X Master Audio 7.1 @ 5224 kbps
  64. Language                                 : English
  65. Default                                  : Yes
  66. Forced                                   : No
  67. Audio #2
  68. ID                                       : 3
  69. Format                                   : DTS XLL
  70. Format/Info                              : Digital Theater Systems
  71. Commercial name                          : DTS-HD Master Audio
  72. Codec ID                                 : A_DTS
  73. Duration                                 : 2 h 6 min
  74. Bit rate mode                            : Variable
  75. Bit rate                                 : 2 441 kb/s
  76. Channel(s)                               : 8 channels
  77. Channel layout                           : C L R LFE Lb Rb Lss Rss
  78. Sampling rate                            : 48.0 kHz
  79. Frame rate                               : 93.750 FPS (512 SPF)
  80. Bit depth                                : 16 bits
  81. Compression mode                         : Lossless
  82. Stream size                              : 2.16 GiB (7%)
  83. Title                                    : Mandarin DTS-HD Master Audio 7.1 @ 2441 kbps
  84. Language                                 : Chinese
  85. Default                                  : No
  86. Forced                                   : No
  87. Text #1
  88. ID                                       : 4
  89. Format                                   : PGS
  90. Codec ID                                 : S_HDMV/PGS
  91. Codec ID/Info                            : Picture based subtitle format used on BDs/HD-DVDs
  92. Duration                                 : 2 h 1 min
  93. Bit rate                                 : 34.9 kb/s
  94. Count of elements                        : 2834
  95. Stream size                              : 30.4 MiB (0%)
  96. Title                                    : Eng/SUP
  97. Language                                 : English
  98. Default                                  : No
  99. Forced                                   : No
  100. Text #2
  101. ID                                       : 5
  102. Format                                   : PGS
  103. Codec ID                                 : S_HDMV/PGS
  104. Codec ID/Info                            : Picture based subtitle format used on BDs/HD-DVDs
  105. Duration                                 : 2 h 5 min
  106. Bit rate                                 : 23.0 kb/s
  107. Count of elements                        : 2292
  108. Stream size                              : 20.6 MiB (0%)
  109. Title                                    : Cht/SUP  原盘繁体(HK)
  110. Language                                 : Chinese
  111. Default                                  : No
  112. Forced                                   : No
  113. Text #3
  114. ID                                       : 6
  115. Format                                   : PGS
  116. Codec ID                                 : S_HDMV/PGS
  117. Codec ID/Info                            : Picture based subtitle format used on BDs/HD-DVDs
  118. Duration                                 : 2 h 5 min
  119. Bit rate                                 : 22.9 kb/s
  120. Count of elements                        : 2294
  121. Stream size                              : 20.5 MiB (0%)
  122. Title                                    : Cht/SUP  原盘繁体(TW)
  123. Language                                 : Chinese
  124. Default                                  : Yes
  125. Forced                                   : No
  126. Text #4
  127. ID                                       : 7
  128. Format                                   : PGS
  129. Codec ID                                 : S_HDMV/PGS
  130. Codec ID/Info                            : Picture based subtitle format used on BDs/HD-DVDs
  131. Duration                                 : 1 h 57 min
  132. Bit rate                                 : 40.6 kb/s
  133. Count of elements                        : 2408
  134. Stream size                              : 34.0 MiB (0%)
  135. Title                                    : Chs/SUP  简英双语
  136. Language                                 : Chinese
  137. Default                                  : No
  138. Forced                                   : No
  139. Text #5
  140. ID                                       : 8
  141. Format                                   : PGS
  142. Codec ID                                 : S_HDMV/PGS
  143. Codec ID/Info                            : Picture based subtitle format used on BDs/HD-DVDs
  144. Duration                                 : 1 h 57 min
  145. Bit rate                                 : 36.6 kb/s
  146. Count of elements                        : 2408
  147. Stream size                              : 30.7 MiB (0%)
  148. Title                                    : Cht/SUP  繁英双语
  149. Language                                 : Chinese
  150. Default                                  : No
  151. Forced                                   : No
  152. Menu
  153. 00:00:00.000                             : :第 01 章
  154. 00:05:19.819                             : :第 02 章
  155. 00:10:14.739                             : :第 03 章
  156. 00:15:17.041                             : :第 04 章
  157. 00:19:33.212                             : :第 05 章
  158. 00:23:46.799                             : :第 06 章
  159. 00:31:40.147                             : :第 07 章
  160. 00:37:59.193                             : :第 08 章
  161. 00:40:26.673                             : :第 09 章
  162. 00:55:28.032                             : :第 10 章
  163. 01:01:43.240                             : :第 11 章
  164. 01:10:44.113                             : :第 12 章
  165. 01:20:01.128                             : :第 13 章
  166. 01:34:03.970                             : :第 14 章
  167. 01:39:45.311                             : :第 15 章
  168. 01:43:43.175                             : :第 16 章
  169. 01:47:56.845                             : :第 17 章
  170. 01:54:45.377                             : :第 18 章
  171. 01:58:04.409                             : :第 19 章
  172. 01:59:55.979                             : :第 20 章




下载地址:

Jurassic.Park.1-3.1993-2001.UHD.BluRay.2160p.2Audio.DTS-X.MA.7.1.x265.10bit.HDR-.torrent

BT9527电影天堂 1、BT9527电影天堂提供的BT文件均来源于互联网抓取,只供网友学习交流、技术提升使用。
2、我们遵守BitTorrent点对点协议原则,任何版权问题请联系原资源发布商,我们不处理任何版权纠纷,谢谢!如有争议请联系邮箱:BT9527#hotmail.com(#换成@)
3、如果您发现某页面或地址有错误,请联系站长邮箱BT9527#hotmail.com(#换成@),我们会尽快处理。您的热心是对BT9527电影天堂最大的支持。
4、本站建议去正规影院观看电影以支持电影行业发展。
最新回复 (0)

你可以在 登录 or 注册 后,对此帖发表评论!

返回
发新帖