丛林奇航[简繁英双语字幕].Jungle.Cruise.2021.UHD.BluRay.2160p.TrueHD.Atmos.7.1.x265.10bit.HDR-ALT 20.16GB

版主小s 1天前 34

✔资源类型:BD-4K   ✔电影年份:2021   ✔电影地区:欧美   ✔电影分类:喜剧

◎标  题 丛林奇航
◎译  名 幻险森林奇航(港) / 丛林巡航 / 森林河流之旅
◎片  名 Jungle Cruise
◎年  代 2021
◎产  地 美国
◎类  别 喜剧 / 动作 / 奇幻 / 冒险
◎语  言 英语
◎上映日期 2021年7月30日
◎IMDb评分 6.6/10 (115288人评价)
◎IMDb链接 https://www.imdb.com/title/tt0870154/
◎豆瓣评分 6.4/10 (14107人评价)
◎豆瓣链接 https://movie.douban.com/subject/3692602/
◎片  长 90 分钟
◎导  演 佐米·希尔拉
◎编  剧 迈克尔·格林
       格伦·费卡拉
       约翰·里夸
       约翰·诺维尔
       乔什·高德斯坦
◎演  员 道恩·强森
       艾米莉·布朗特
       埃德加·拉米雷兹
       杰克·怀特霍尔
       杰西·普莱蒙
       保罗·吉亚玛提
       维罗尼卡·法尔孔
       丹尼·罗维拉
       基姆·古铁雷斯
       丹·达根·卡特
       安迪·尼曼
       拉斐尔·亚历杭德罗
       西蒙娜·洛克哈特
       佩德罗·洛佩兹
       马克·阿什沃斯
       艾伦·波普尔顿
       詹姆斯·夸特罗奇
       史蒂芬·邓利维
       罗穆阿尔多·卡斯蒂略
       大卫·伦格尔
       贾斯汀·兰德尔·布鲁克
       布鲁克·杰伊·泰勒
       基思·阿瑟·鲍顿
       詹姆斯·威廉·巴拉德
       瑞安·博兹
       费斯·费伊
       杰伊·古铁雷斯
       约书亚·古铁雷斯
       伊拉娜·古拉尔尼克
       肖恩·麦克布莱德
       凯西·纳尔逊
       艾米丽·玛丽·帕尔默
       詹姆斯·锡德里兹

  1. ##### MediaInfo ######
  2. General
  3. Unique ID                                : 35801274573748982576805996070589502235 (0x1AEF131DE49CD1740FD42F3CB499131B)
  4. Complete name                            : Jungle.Cruise.2021.UHD.BluRay.2160p.TrueHD.Atmos.7.1.x265.10bit.HDR-ALT.mkv
  5. Format                                   : Matroska
  6. Format version                           : Version 4
  7. File size                                : 20.2 GiB
  8. Duration                                 : 2 h 7 min
  9. Overall bit rate mode                    : Variable
  10. Overall bit rate                         : 22.7 Mb/s
  11. Encoded date                             : UTC 2021-10-04 05:10:38
  12. Writing application                      : mkvmerge v49.0.0 ('Sick Of Losing Soulmates') 64-bit
  13. Writing library                          : libebml v1.4.0 + libmatroska v1.6.1
  14. Video
  15. ID                                       : 1
  16. Format                                   : HEVC
  17. Format/Info                              : High Efficiency Video Coding
  18. Format profile                           : Main 10@L5.1@High
  19. HDR format                               : SMPTE ST 2086, HDR10 compatible
  20. Codec ID                                 : V_MPEGH/ISO/HEVC
  21. Duration                                 : 2 h 7 min
  22. Bit rate                                 : 16.9 Mb/s
  23. Width                                    : 3 840 pixels
  24. Height                                   : 1 608 pixels
  25. Display aspect ratio                     : 2.40:1
  26. Frame rate mode                          : Constant
  27. Frame rate                               : 23.976 (24000/1001/53354) FPS
  28. Color space                              : YUV
  29. Chroma subsampling                       : 4:2:0 (Type 2)
  30. Bit depth                                : 10 bits
  31. Bits/(Pixel*Frame)                       : 0.114
  32. Stream size                              : 15.0 GiB (74%)
  33. Title                                    : HEVC, x265Main10@L5.1@High, 24/1.001 fps @ 16871 kbps
  34. Writing library                          : x265 3.4+14-gd419c7152:[Windows][GCC 10.2.0][64 bit] 10bit
  35. Encoding settings                        : cpuid=533541111039 / frame-threads=4 / numa-pools=16 / wpp / pmode / pme / no-psnr / no-ssim / log-level=2 / input-csp=1 / input-res=3840x1608 / interlace=0 / total-frames=183165 / level-idc=51 / high-tier=1 / uhd-bd=0 / ref=4 / no-allow-non-conformance / repeat-headers / annexb / no-aud / hrd / info / hash=0 / no-temporal-layers / no-open-gop / min-keyint=24 / keyint=240 / gop-lookahead=0 / bframes=8 / b-adapt=2 / b-pyramid / bframe-bias=0 / rc-lookahead=25 / lookahead-slices=0 / NTMzNTQ=uuDQuD2mJt9fsCf / scenecut=40 / hist-scenecut=0 / radl=0 / no-splice / no-intra-refresh / ctu=64 / min-cu-size=8 / no-rect / no-amp / max-tu-size=32 / tu-inter-depth=3 / tu-intra-depth=3 / limit-tu=4 / rdoq-level=2 / dynamic-rd=0.00 / no-ssim-rd / signhide / no-tskip / nr-intra=0 / nr-inter=0 / no-constrained-intra / no-strong-intra-smoothing / max-merge=4 / limit-refs=1 / limit-modes / me=3 / subme=4 / merange=25 / temporal-mvp / no-frame-dup / no-hme / weightp / weightb / no-analyze-src-pics / deblock=-3:-3 / no-sao / no-sao-non-deblock / rd=6 / selective-sao=0 / no-early-skip / rskip / no-fast-intra / no-tskip-fast / no-cu-lossless / b-intra / no-splitrd-skip / rdpenalty=0 / psy-rd=2.00 / psy-rdoq=1.00 / no-rd-refine / no-lossless / cbqpoffs=0 / crqpoffs=0 / rc=crf / crf=17.0 / qcomp=0.65 / qpstep=4 / stats-write=0 / stats-read=0 / vbv-maxrate=160000 / vbv-bufsize=160000 / vbv-init=0.9 / crf-max=0.0 / crf-min=0.0 / ipratio=1.30 / pbratio=1.20 / aq-mode=3 / aq-strength=0.85 / cutree / zone-count=0 / no-strict-cbr / qg-size=32 / no-rc-grain / qpmax=69 / qpmin=0 / no-const-vbv / sar=1 / overscan=0 / videoformat=5 / range=0 / colorprim=9 / transfer=16 / colormatrix=9 / chromaloc=1 / chromaloc-top=2 / chromaloc-bottom=2 / display-window=0 / master-display=G(13250,34500)B(7500,3000)R(34000,16000)WP(15635,16450)L(10000000,50) / cll=0,0 / min-luma=0 / max-luma=1023 / log2-max-poc-lsb=8 / vui-timing-info / vui-hrd-info / slices=1 / no-opt-qp-pps / no-opt-ref-list-length-pps / no-multi-pass-opt-rps / scenecut-bias=0.05 / hist-threshold=0.03 / no-opt-cu-delta-qp / no-aq-motion / hdr10 / hdr10-opt / no-dhdr10-opt / no-idr-recovery-sei / analysis-reuse-level=0 / analysis-save-reuse-level=0 / analysis-load-reuse-level=0 / scale-factor=0 / refine-intra=0 / refine-inter=0 / refine-mv=1 / refine-ctu-distortion=0 / no-limit-sao / ctu-info=0 / no-lowpass-dct / refine-analysis-type=0 / copy-pic=1 / max-ausize-factor=1.0 / no-dynamic-refine / no-single-sei / no-hevc-aq / no-svt / no-field / qp-adaptation-range=1.00 / no-scenecut-aware-qpconformance-window-offsets / right=0 / bottom=0 / NTMzNTQ= / decoder-max-rate=0
  36. Language                                 : English
  37. Default                                  : Yes
  38. Forced                                   : No
  39. Color range                              : Limited
  40. Color primaries                          : BT.2020
  41. Transfer characteristics                 : PQ
  42. Matrix coefficients                      : BT.2020 non-constant
  43. Mastering display color primaries        : Display P3
  44. Mastering display luminance              : min: 0.0050 cd/m2, max: 1000 cd/m2
  45. Audio #1
  46. ID                                       : 2
  47. Format                                   : MLP FBA 16-ch
  48. Format/Info                              : Meridian Lossless Packing FBA with 16-channel presentation
  49. Commercial name                          : Dolby TrueHD with Dolby Atmos
  50. Codec ID                                 : A_TRUEHD
  51. Duration                                 : 2 h 7 min
  52. Bit rate mode                            : Variable
  53. Bit rate                                 : 4 861 kb/s
  54. Maximum bit rate                         : 8 280 kb/s
  55. Channel(s)                               : 8 channels
  56. Channel layout                           : L R C LFE Ls Rs Lb Rb
  57. Sampling rate                            : 48.0 kHz
  58. Frame rate                               : 1 200.000 FPS (40 SPF)
  59. Compression mode                         : Lossless
  60. Stream size                              : 4.32 GiB (21%)
  61. Title                                    : English Dolby TrueHD 7.1 (Atmos) @ 5501 kbps
  62. Language                                 : English
  63. Default                                  : Yes
  64. Forced                                   : No
  65. Number of dynamic objects                : 13
  66. Bed channel count                        : 1 channel
  67. Bed channel configuration                : LFE
  68. Audio #2
  69. ID                                       : 3
  70. Format                                   : AC-3
  71. Format/Info                              : Audio Coding 3
  72. Commercial name                          : Dolby Digital
  73. Codec ID                                 : A_AC3
  74. Duration                                 : 2 h 7 min
  75. Bit rate mode                            : Constant
  76. Bit rate                                 : 640 kb/s
  77. Channel(s)                               : 6 channels
  78. Channel layout                           : L R C LFE Ls Rs
  79. Sampling rate                            : 48.0 kHz
  80. Frame rate                               : 31.250 FPS (1536 SPF)
  81. Compression mode                         : Lossy
  82. Stream size                              : 583 MiB (3%)
  83. Title                                    : English Dolby Digital Audio 5.1 @ 640 kbps
  84. Language                                 : English
  85. Service kind                             : Complete Main
  86. Default                                  : No
  87. Forced                                   : No
  88. Text #1
  89. ID                                       : 4
  90. Format                                   : PGS
  91. Codec ID                                 : S_HDMV/PGS
  92. Codec ID/Info                            : Picture based subtitle format used on BDs/HD-DVDs
  93. Duration                                 : 2 h 6 min
  94. Bit rate                                 : 48.7 kb/s
  95. Count of elements                        : 4204
  96. Stream size                              : 44.2 MiB (0%)
  97. Title                                    : Eng/SUP
  98. Language                                 : English
  99. Default                                  : No
  100. Forced                                   : No
  101. Text #2
  102. ID                                       : 5
  103. Format                                   : PGS
  104. Codec ID                                 : S_HDMV/PGS
  105. Codec ID/Info                            : Picture based subtitle format used on BDs/HD-DVDs
  106. Duration                                 : 1 h 56 min
  107. Bit rate                                 : 33.1 kb/s
  108. Count of elements                        : 3075
  109. Stream size                              : 27.6 MiB (0%)
  110. Title                                    : Chs/SUP  简体
  111. Language                                 : Chinese
  112. Default                                  : Yes
  113. Forced                                   : No
  114. Text #3
  115. ID                                       : 6
  116. Format                                   : PGS
  117. Codec ID                                 : S_HDMV/PGS
  118. Codec ID/Info                            : Picture based subtitle format used on BDs/HD-DVDs
  119. Duration                                 : 1 h 56 min
  120. Bit rate                                 : 34.3 kb/s
  121. Count of elements                        : 3075
  122. Stream size                              : 28.6 MiB (0%)
  123. Title                                    : Cht/SUP  繁体
  124. Language                                 : Chinese
  125. Default                                  : No
  126. Forced                                   : No
  127. Text #4
  128. ID                                       : 7
  129. Format                                   : PGS
  130. Codec ID                                 : S_HDMV/PGS
  131. Codec ID/Info                            : Picture based subtitle format used on BDs/HD-DVDs
  132. Duration                                 : 1 h 56 min
  133. Bit rate                                 : 61.8 kb/s
  134. Count of elements                        : 3249
  135. Stream size                              : 51.7 MiB (0%)
  136. Title                                    : Chs/SUP  简英双语
  137. Language                                 : Chinese
  138. Default                                  : No
  139. Forced                                   : No
  140. Text #5
  141. ID                                       : 8
  142. Format                                   : PGS
  143. Codec ID                                 : S_HDMV/PGS
  144. Codec ID/Info                            : Picture based subtitle format used on BDs/HD-DVDs
  145. Duration                                 : 1 h 56 min
  146. Bit rate                                 : 62.7 kb/s
  147. Count of elements                        : 3249
  148. Stream size                              : 52.4 MiB (0%)
  149. Title                                    : Cht/SUP  繁英双语
  150. Language                                 : Chinese
  151. Default                                  : No
  152. Forced                                   : No
  153. Menu
  154. 00:00:00.000                             : en:第 01 章
  155. 00:03:16.154                             : en:第 02 章
  156. 00:09:20.435                             : en:第 03 章
  157. 00:14:44.801                             : en:第 04 章
  158. 00:17:48.859                             : en:第 05 章
  159. 00:22:35.854                             : en:第 06 章
  160. 00:26:23.415                             : en:第 07 章
  161. 00:31:19.044                             : en:第 08 章
  162. 00:32:54.055                             : en:第 09 章
  163. 00:36:55.046                             : en:第 10 章
  164. 00:41:08.883                             : en:第 11 章
  165. 00:44:18.656                             : en:第 12 章
  166. 00:46:25.157                             : en:第 13 章
  167. 00:48:58.102                             : en:第 14 章
  168. 00:53:53.480                             : en:第 15 章
  169. 00:57:06.757                             : en:第 16 章
  170. 00:58:59.828                             : en:第 17 章
  171. 01:03:08.994                             : en:第 18 章
  172. 01:07:11.110                             : en:第 19 章
  173. 01:13:45.421                             : en:第 20 章
  174. 01:17:04.620                             : en:第 21 章
  175. 01:18:26.243                             : en:第 22 章
  176. 01:24:44.955                             : en:第 23 章
  177. 01:26:34.314                             : en:第 24 章
  178. 01:28:21.171                             : en:第 25 章
  179. 01:35:22.759                             : en:第 26 章
  180. 01:36:46.467                             : en:第 27 章
  181. 01:42:55.544                             : en:第 28 章
  182. 01:54:20.270                             : en:第 29 章
  183. 01:57:05.268                             : en:第 30 章




下载地址:

Jungle.Cruise.2021.UHD.BluRay.2160p.TrueHD.Atmos.7.1.x265.10bit.HDR-ALT.torrent

BT9527电影天堂 1、BT9527电影天堂提供的BT文件均来源于互联网抓取,只供网友学习交流、技术提升使用。
2、我们遵守BitTorrent点对点协议原则,任何版权问题请联系原资源发布商,我们不处理任何版权纠纷,谢谢!如有争议请联系邮箱:BT9527#hotmail.com(#换成@)
3、如果您发现某页面或地址有错误,请联系站长邮箱BT9527#hotmail.com(#换成@),我们会尽快处理。您的热心是对BT9527电影天堂最大的支持。
4、本站建议去正规影院观看电影以支持电影行业发展。
最新回复 (0)

你可以在 登录 or 注册 后,对此帖发表评论!

返回
发新帖