神秘海域[简繁英字幕].Uncharted.2022.BluRay.1080p.DTS-HD.MA5.1.x265.10bit-ALT 8.09GB

版主小s 1天前 30

✔资源类型:暂未分类   ✔电影年份:2022   ✔电影地区:欧美   ✔电影分类:动作

◎标  题 神秘海域
◎译  名 秘境探险(港 / 台) / 神秘海域:德雷克船长的宝藏 / Uncharted: Drake's Fortune
◎片  名 Uncharted
◎年  代 2022
◎产  地 美国
◎类  别 动作 / 冒险
◎语  言 英语 / 西班牙语
◎上映日期 2022-03-14(中国大陆) / 2022-02-18(美国)
◎IMDb评分 6.4/10 (105798人评价)
◎IMDb链接 https://www.imdb.com/title/tt1464335/
◎豆瓣评分 6.3/10 (65843人评价)
◎豆瓣链接 https://movie.douban.com/subject/3822687/
◎片  长 116分钟
◎导  演 鲁本·弗雷斯彻 Ruben Fleischer
◎编  剧 雷夫·贾金斯 Rafe Judkins
       阿特·马库姆 Art Marcum
       马特·霍洛维 Matt Holloway
◎演  员 汤姆·赫兰德 Tom Holland
       马克·沃尔伯格 Mark Wahlberg
       索菲娅·阿里 Sophia Ali
       塔蒂·加布里埃 Tati Gabrielle
       安东尼奥·班德拉斯 Antonio Banderas
       史蒂芬·威丁顿 Steven Waddington
       乔治娅·古德曼 Georgia Goodman
       迪尔梅德·默塔 Diarmaid Murtagh
       约瑟夫·巴德拉玛 Joseph Balderrama
       阿拉娜·博登 Alana Boden
       罗伯特‧马瑟 Robert Maaser
       埃斯金迪尔·特斯法 Eskindir Tesfay
       曼纽尔·德·巴拉斯 Manuel de Blas
       帕特丽夏·梅登 Patricia Meeden
       诺兰·诺斯 Nolan North
       吉米·哈特 Jimmy Hart
       皮鲁·埃斯贝克 Pilou Asbæk
       莎拉·佩特里克 Sarah Petrick
       平吉·莫里 Pingi Moli
       蒂尔南·琼斯 Tiernan Jones
       鲁迪·潘科 Rudy Pankow
       乔纳森·法伊拉 Jonathan Failla
       安东尼·托马斯 Anthony Thomas
       彼得·锡顿-克拉克  Peter Seaton-Clark
       查尔斯·罗文 Charles Roven
       阿维·阿拉德 Avi Arad
       亚历克斯·加特纳 Alex Gartner
       阿里·阿拉德 Ari Arad
       鲁本·弗雷斯彻 Ruben Fleischer
       阿萨德·齐齐尔巴什 Asad Qizilbash
       丁正勋 Chung-hoon Chung
       玛琳·斯图尔特 Marlene Stewart
       贾斯汀·理查蒙德 Justin Richmond

◎简  介
  足智多谋的内森·德雷克(汤姆·赫兰德 饰)和经验丰富的寻宝者维克多·苏利文(马克·沃尔伯格 饰)组成搭档,追寻费迪南·麦哲伦500年前遗失的宝藏。一开始,这似乎只是个简单的寻宝工作,但很快演变成了一场惊险刺激、横跨全球的竞赛。他们必须赶在冷酷无情的蒙卡达(安东尼奥·班德拉斯 饰)之前寻得宝藏。蒙卡达坚信他和他的家族才是宝藏的正当继承人。若内森和苏利文能破译线索,解开这世界上最古老的谜团,他们便能找到价值50亿美元的宝藏,甚至还可能找到内森失踪已久的哥哥……但首先,他们必须学会通力合作。
  1. ##### MediaInfo ######
  2. General
  3. Unique ID                                : 181288010522107214163656900436079048918 (0x8862CD0161045F33B2EDAF7CE2B678D6)
  4. Complete name                            : Uncharted.2022.BluRay.1080p.DTS-HD.MA5.1.x265.10bit-ALT.mkv
  5. Format                                   : Matroska
  6. Format version                           : Version 4
  7. File size                                : 8.09 GiB
  8. Duration                                 : 1 h 55 min
  9. Overall bit rate mode                    : Variable
  10. Overall bit rate                         : 9 996 kb/s
  11. Encoded date                             : UTC 2022-05-01 02:01:49
  12. Writing application                      : mkvmerge v49.0.0 ('Sick Of Losing Soulmates') 64-bit
  13. Writing library                          : libebml v1.4.0 + libmatroska v1.6.1
  14. Video
  15. ID                                       : 1
  16. Format                                   : HEVC
  17. Format/Info                              : High Efficiency Video Coding
  18. Format profile                           : Main 10@L5.1@High
  19. Codec ID                                 : V_MPEGH/ISO/HEVC
  20. Duration                                 : 1 h 55 min
  21. Bit rate                                 : 7 408 kb/s
  22. Width                                    : 1 920 pixels
  23. Height                                   : 804 pixels
  24. Display aspect ratio                     : 2.40:1
  25. Frame rate mode                          : Constant
  26. Frame rate                               : 23.976 (24000/1001/53354) FPS
  27. Color space                              : YUV
  28. Chroma subsampling                       : 4:2:0
  29. Bit depth                                : 10 bits
  30. Bits/(Pixel*Frame)                       : 0.200
  31. Stream size                              : 5.99 GiB (74%)
  32. Title                                    : HEVC, x265Main10@L5.1@High, 24/1.001 fps @ 7408 kbps
  33. Writing library                          : x265 3.5+36-1f2c8da77:[Windows][GCC 11.2.0][64 bit] 10bit
  34. Encoding settings                        : cpuid=533541111039 / frame-threads=4 / numa-pools=16 / wpp / pmode / pme / no-psnr / no-ssim / log-level=2 / input-csp=1 / input-res=1920x804 / interlace=0 / total-frames=166656 / level-idc=51 / high-tier=1 / uhd-bd=0 / ref=5 / no-allow-non-conformance / no-repeat-headers / annexb / no-aud / no-eob / no-eos / no-hrd / info / hash=0 / no-temporal-layers / open-gop / min-keyint=24 / keyint=240 / gop-lookahead=0 / bframes=6 / b-adapt=2 / b-pyramid / bframe-bias=0 / rc-lookahead=40 / lookahead-slices=0 / NTMzNTQ=uuDQuD2mJt9fsCf / scenecut=40 / no-hist-scenecut / radl=0 / no-splice / no-intra-refresh / ctu=32 / min-cu-size=8 / no-rect / no-amp / max-tu-size=32 / tu-inter-depth=3 / tu-intra-depth=3 / limit-tu=4 / rdoq-level=2 / dynamic-rd=0.00 / no-ssim-rd / signhide / no-tskip / nr-intra=0 / nr-inter=0 / no-constrained-intra / no-strong-intra-smoothing / max-merge=4 / limit-refs=1 / limit-modes / me=3 / subme=4 / merange=25 / temporal-mvp / no-frame-dup / no-hme / weightp / weightb / no-analyze-src-pics / deblock=-3:-3 / no-sao / no-sao-non-deblock / rd=6 / selective-sao=0 / no-early-skip / rskip / no-fast-intra / no-tskip-fast / no-cu-lossless / b-intra / no-splitrd-skip / rdpenalty=0 / psy-rd=2.00 / psy-rdoq=1.00 / no-rd-refine / no-lossless / cbqpoffs=0 / crqpoffs=0 / rc=crf / crf=17.0 / qcomp=0.65 / qpstep=4 / stats-write=0 / stats-read=0 / vbv-maxrate=80000 / vbv-bufsize=80000 / vbv-init=0.9 / min-vbv-fullness=50.0 / max-vbv-fullness=80.0 / crf-max=0.0 / crf-min=0.0 / ipratio=1.40 / pbratio=1.30 / aq-mode=2 / aq-strength=0.85 / cutree / zone-count=0 / no-strict-cbr / qg-size=32 / no-rc-grain / qpmax=69 / qpmin=0 / no-const-vbv / sar=1 / overscan=0 / videoformat=5 / range=0 / colorprim=1 / transfer=1 / colormatrix=1 / chromaloc=0 / display-window=0 / cll=0,0 / min-luma=0 / max-luma=1023 / log2-max-poc-lsb=8 / vui-timing-info / vui-hrd-info / slices=1 / no-opt-qp-pps / no-opt-ref-list-length-pps / no-multi-pass-opt-rps / scenecut-bias=0.05 / hist-threshold=0.03 / no-opt-cu-delta-qp / no-aq-motion / no-hdr10 / no-hdr10-opt / no-dhdr10-opt / no-idr-recovery-sei / analysis-reuse-level=0 / analysis-save-reuse-level=0 / analysis-load-reuse-level=0 / scale-factor=0 / refine-intra=0 / refine-inter=0 / refine-mv=1 / refine-ctu-distortion=0 / no-limit-sao / ctu-info=0 / no-lowpass-dct / refine-analysis-type=0 / copy-pic=1 / max-ausize-factor=1.0 / no-dynamic-refine / no-single-sei / no-hevc-aq / no-svt / no-field / qp-adaptation-range=1.00 / scenecut-aware-qp=0conformance-window-offsets / right=0 / bottom=0 / NTMzNTQ= / decoder-max-rate=0 / no-vbv-live-multi-pass
  35. Language                                 : English
  36. Default                                  : Yes
  37. Forced                                   : No
  38. Color range                              : Limited
  39. Color primaries                          : BT.709
  40. Transfer characteristics                 : BT.709
  41. Matrix coefficients                      : BT.709
  42. Audio #1
  43. ID                                       : 2
  44. Format                                   : DTS XLL
  45. Format/Info                              : Digital Theater Systems
  46. Commercial name                          : DTS-HD Master Audio
  47. Codec ID                                 : A_DTS
  48. Duration                                 : 1 h 55 min
  49. Bit rate mode                            : Variable
  50. Bit rate                                 : 2 213 kb/s
  51. Channel(s)                               : 6 channels
  52. Channel layout                           : C L R Ls Rs LFE
  53. Sampling rate                            : 48.0 kHz
  54. Frame rate                               : 93.750 FPS (512 SPF)
  55. Bit depth                                : 16 bits
  56. Compression mode                         : Lossless
  57. Stream size                              : 1.79 GiB (22%)
  58. Title                                    : English DTS-HD Master Audio 5.1 @ 2213 kbps
  59. Language                                 : English
  60. Default                                  : Yes
  61. Forced                                   : No
  62. Audio #2
  63. ID                                       : 3
  64. Format                                   : AC-3
  65. Format/Info                              : Audio Coding 3
  66. Commercial name                          : Dolby Digital
  67. Codec ID                                 : A_AC3
  68. Duration                                 : 1 h 55 min
  69. Bit rate mode                            : Constant
  70. Bit rate                                 : 192 kb/s
  71. Channel(s)                               : 2 channels
  72. Channel layout                           : L R
  73. Sampling rate                            : 48.0 kHz
  74. Frame rate                               : 31.250 FPS (1536 SPF)
  75. Compression mode                         : Lossy
  76. Stream size                              : 159 MiB (2%)
  77. Title                                    : English Dolby Digital Audio 2.0 @ 192 kbps  Commentary
  78. Language                                 : English
  79. Service kind                             : Complete Main
  80. Default                                  : No
  81. Forced                                   : No
  82. Text #1
  83. ID                                       : 4
  84. Format                                   : PGS
  85. Codec ID                                 : S_HDMV/PGS
  86. Codec ID/Info                            : Picture based subtitle format used on BDs/HD-DVDs
  87. Duration                                 : 1 h 48 min
  88. Bit rate                                 : 39.3 kb/s
  89. Count of elements                        : 3205
  90. Stream size                              : 30.4 MiB (0%)
  91. Title                                    : Eng/SUP  SDH
  92. Language                                 : English
  93. Default                                  : No
  94. Forced                                   : No
  95. Text #2
  96. ID                                       : 5
  97. Format                                   : PGS
  98. Codec ID                                 : S_HDMV/PGS
  99. Codec ID/Info                            : Picture based subtitle format used on BDs/HD-DVDs
  100. Duration                                 : 1 h 47 min
  101. Bit rate                                 : 33.4 kb/s
  102. Count of elements                        : 2670
  103. Stream size                              : 25.7 MiB (0%)
  104. Title                                    : Eng/SUP
  105. Language                                 : English
  106. Default                                  : No
  107. Forced                                   : No
  108. Text #3
  109. ID                                       : 6
  110. Format                                   : PGS
  111. Codec ID                                 : S_HDMV/PGS
  112. Codec ID/Info                            : Picture based subtitle format used on BDs/HD-DVDs
  113. Duration                                 : 1 h 51 min
  114. Bit rate                                 : 70.3 kb/s
  115. Count of elements                        : 3877
  116. Stream size                              : 55.9 MiB (1%)
  117. Title                                    : Eng/SUP  Commentary
  118. Language                                 : English
  119. Default                                  : No
  120. Forced                                   : No
  121. Text #4
  122. ID                                       : 7
  123. Format                                   : PGS
  124. Codec ID                                 : S_HDMV/PGS
  125. Codec ID/Info                            : Picture based subtitle format used on BDs/HD-DVDs
  126. Duration                                 : 1 h 53 min
  127. Bit rate                                 : 23.5 kb/s
  128. Count of elements                        : 2708
  129. Stream size                              : 19.1 MiB (0%)
  130. Title                                    : Chs/SUP  简体
  131. Language                                 : Chinese
  132. Default                                  : Yes
  133. Forced                                   : No
  134. Text #5
  135. ID                                       : 8
  136. Format                                   : PGS
  137. Codec ID                                 : S_HDMV/PGS
  138. Codec ID/Info                            : Picture based subtitle format used on BDs/HD-DVDs
  139. Duration                                 : 1 h 53 min
  140. Bit rate                                 : 20.8 kb/s
  141. Count of elements                        : 2708
  142. Stream size                              : 17.0 MiB (0%)
  143. Title                                    : Cht/SUP  繁体
  144. Language                                 : Chinese
  145. Default                                  : No
  146. Forced                                   : No
  147. Menu
  148. 00:00:00.000                             : en:第 01 章
  149. 00:08:16.496                             : en:第 02 章
  150. 00:12:23.409                             : en:第 03 章
  151. 00:18:56.886                             : en:第 04 章
  152. 00:24:30.219                             : en:第 05 章
  153. 00:31:35.102                             : en:第 06 章
  154. 00:36:14.464                             : en:第 07 章
  155. 00:41:26.984                             : en:第 08 章
  156. 00:48:05.174                             : en:第 09 章
  157. 00:53:18.404                             : en:第 10 章
  158. 00:59:13.258                             : en:第 11 章
  159. 01:05:53.199                             : en:第 12 章
  160. 01:12:02.944                             : en:第 13 章
  161. 01:17:33.065                             : en:第 14 章
  162. 01:25:00.387                             : en:第 15 章
  163. 01:34:41.843                             : en:第 16 章
  164. 01:49:38.322                             : en:第 17 章




下载地址:

Uncharted.2022.BluRay.1080p.DTS-HD.MA5.1.x265.10bit-ALT.torrent

BT9527电影天堂 1、BT9527电影天堂提供的BT文件均来源于互联网抓取,只供网友学习交流、技术提升使用。
2、我们遵守BitTorrent点对点协议原则,任何版权问题请联系原资源发布商,我们不处理任何版权纠纷,谢谢!如有争议请联系邮箱:BT9527#hotmail.com(#换成@)
3、如果您发现某页面或地址有错误,请联系站长邮箱BT9527#hotmail.com(#换成@),我们会尽快处理。您的热心是对BT9527电影天堂最大的支持。
4、本站建议去正规影院观看电影以支持电影行业发展。
最新回复 (0)

你可以在 登录 or 注册 后,对此帖发表评论!

返回
发新帖