热带惊雷[简繁英字幕].Tropic.Thunder.2008.DC.BluRay.1080p.TrueHD.5.1.x265.10bit-ALT 11.63GB

版主小s 1天前 22

✔资源类型:暂未分类   ✔电影年份:2008   ✔电影地区:欧美   ✔电影分类:喜剧

◎标  题 热带惊雷
◎译  名 雷霆丧星(港) / 开麦拉惊魂(台)
◎片  名 Tropic Thunder
◎年  代 2008
◎产  地 美国 / 德国
◎类  别 喜剧 / 动作 / 冒险
◎语  言 英语 / 汉语普通话
◎上映日期 2008-08-13(美国)
◎IMDb评分 7/10 (397771人评价)
◎IMDb链接 https://www.imdb.com/title/tt0942385/
◎豆瓣评分 6.9/10 (36406人评价)
◎豆瓣链接 https://movie.douban.com/subject/1994879/
◎片  长 107 分钟
◎导  演 本·斯蒂勒 Ben Stiller
◎编  剧 本·斯蒂勒 Ben Stiller
       贾斯汀·塞洛克斯 Justin Theroux
       伊坦·柯亨 Etan Cohen
◎演  员 本·斯蒂勒 Ben Stiller
       小罗伯特·唐尼 Robert Downey Jr.
       杰克·布莱克 Jack Black
       马修·麦康纳 Matthew McConaughey
       史蒂夫·库根 Steve Coogan
       尼克·诺特 Nick Nolte
       布兰登·T·杰克逊 Brandon T. Jackson
       杰伊·巴鲁切尔 Jay Baruchel
       汤姆·克鲁斯 Tom Cruise
       比尔·哈德尔 Bill Hader
       雷吉·李 Reggie Lee
       托比·马奎尔 Tobey Maguire
       詹妮弗·洛芙·休伊特 Jennifer Love Hewitt
       杰森·贝特曼 Jason Bateman
       强·沃特 Jon Voight
       艾丽西亚·希尔维斯通 Alicia Silverstone
       泰拉·班克斯 Tyra Banks
       丹尼·麦克布莱德 Danny McBride
       米妮·安顿 Mini Anden
       克里斯蒂娜·泰勒 Christine Taylor
       伊薇特·尼科尔·布朗 Yvette Nicole Brown
       凯文·波拉克 Kevin Pollak
       玛丽娅·曼努诺斯 Maria Menounos
       布兰登·司徒 Brandon Soo Hoo
       兰斯·巴斯 Lance Bass
       安东尼·瑞维瓦 Anthony Ruivivar
       米克·休斯 Miko Hughes
       艾米·斯蒂勒 Amy Stiller
       雅斯曼·达斯汀 Jasmine Dustin
       马特·莱文 Matt Levin
       凯莉·多森 Kaylee Dodson
       Mike Hoagland Mike Hoagland
       查德·芒廷 Chad Mountain
        Jillian Johnston
        Denise Bradley
        Samantha Sadoff
        Jobeth Wagner
       大卫·普雷斯曼 David Pressman
       娜塔莉·科恩 Natalie Cohen
       唐·阿伯纳西 Don Abernathy
       本·斯蒂勒 Ben Stiller
       贾斯汀·塞洛克斯 Justin Theroux
       西奥多·沙皮洛 Theodore Shapiro
       约翰·托尔 John Toll
       Greg Hayden Greg Hayden
       弗兰辛·梅思勒 Francine Maisler
       杰夫·曼恩 Jeff Mann
       Richard L. Johnson Richard L. Johnson
       丹·韦伯斯特 Dan Webster
       玛琳·斯图尔特 Marlene Stewart
       Gerald Quist Gerald Quist
       Beth Miller Beth Miller
       凯特·比斯科 Kate Biscoe
       Jay Wejebe Jay Wejebe
       里克·贝克 Rick Baker
       约翰·布雷克 John Blake
       马修·W.蒙格儿 Matthew W. Mungle
       大村浩二 Koji Ohmura
       Margaret Prentice Margaret Prentice
       格雷格·尼尔森 Greg Nelson
       米切尔·布克 Michèle Burke
       巴尼·布尔曼 Barney Burman
       辻一弘 Kazuhiro Tsuji
       Roland Blancaflor Roland Blancaflor
       Heather Plott Heather Plott
       Natasha Ladek Natasha Ladek
       Michael S. Pack Michael S. Pack
       Yoichi Art Sakamoto Yoichi Art Sakamoto
        Lotus Seki
       菲尔·尼尔森 Phil Neilson
       Nick Satriano Nick Satriano
       比尔·博普 Bill Purple
       朱莉·卡明斯 Julie Cummings
       弗农·戴维森 Vernon Davidson
       克里斯托尔·道德 Crystal Dowd
       丹尼斯·霍夫曼 Dennis Hoffman
       内森·麦克基尼斯 Nathan McGuinness
       迈克尔·L·芬克 Michael L. Fink
       Ivan DeWolf Ivan DeWolf
        Jaehyun Yoo
       马克·丹菲特 Mark Dornfeld
       杰米·迪克森 Jamie Dixon
       Nick Drew Nick Drew
       Jason Wardle Jason Wardle
       Rhonda C. Gunner Rhonda C. Gunner
       罗伯特·斯特罗姆伯格 Robert Stromberg
       Jim O'Hagan Jim O'Hagan
       丹尼尔·梅利兹 Daniel Mellitz
       布莱恩·哈纳伯 Brian Hanable
       罗伯特·明斯克 Robert Minsk
       保罗·弗明格 Paul Furminger
        Sam Dabbs
        Paulina Kuszta
        Graeme Baitz
        Eddie Offermann
       Roger Ames Berger Roger Ames Berger
       布莱恩·福尔摩斯 Brian Holmes
       保罗·弗拉纳根 Paul Flanagan
       Jessee J. Clarkson Jessee J. Clarkson
       Lee Pierce Lee Pierce
       夏伊娜·霍尔姆斯 Shaina Holmes
       Kyle Cooper Kyle Cooper
       Amani Williams Amani Williams
       Brenda Finster Brenda Finster
       兰迪·布朗 Randy Brown
       Mark Intravartolo Mark Intravartolo
       David Sosalla David Sosalla
       Wes Takahashi Wes Takahashi
        Anuj Patil
       乔丹·本威克 Jordan Benwick
       Paul Graff Paul Graff
       Craig Calvert Craig Calvert
       Abel Milanes Abel Milanes
       Romain Bayle Romain Bayle
       Lee Allan Lee Allan
       Jinnie Pak Jinnie Pak
       迈克尔·欧文斯 Michael Owens
       Michele Ferrone Michele Ferrone
       西蒙·阿格 Simon Ager
       让·勒庞 Jean Lapointe
       乔什·莫索蒂 Josh Mossotti
       Mark Breakspear Mark Breakspear

◎标  签 喜剧 / 美国 / 恶搞 / 搞笑 / 美国电影 / BenStiller / 2008 / TomCruise

◎简  介
  好莱坞计划拍摄一部讲述越战期间,美国一支精英小队前往越南东南部执行绝密任务的战争片,片名《热带惊雷》。该片耗资巨大,场面壮观,号称有史以来最贵的越战影片,并云集了塔克·斯皮德曼(本·斯蒂勒 Ben Stiller 饰)、柯克·拉扎鲁斯(小罗伯特·唐尼 Robert Downey Jr. 饰)、杰夫·波特尼(杰克·布莱克 Jack Black 饰)等过气或当红明星。为力求真实,导演达明·柯克伯恩(史蒂夫·库根 Steve Coogan 饰)甚至将剧组拉至东南亚进行拍摄。影片开拍伊始便状况不断,争议话题频出,最后还卷入当地一场真实的战争之中……                                    
                                本片荣获2009年美国演员协会杰出贡献奖、2008年好莱坞电影节年度喜剧奖、2009年青年艺术家奖最佳男配角奖(Brandon Soo Hoo)。
  1. ##### MediaInfo ######
  2. General
  3. Unique ID                                : 149272637192715899803194332407055594685 (0x704CDD3B358C9972EE2B93DE307134BD)
  4. Complete name                            : Tropic.Thunder.2008.DC.BluRay.1080p.TrueHD.5.1.x265.10bit-ALT.mkv
  5. Format                                   : Matroska
  6. Format version                           : Version 4
  7. File size                                : 11.6 GiB
  8. Duration                                 : 2 h 1 min
  9. Overall bit rate mode                    : Variable
  10. Overall bit rate                         : 13.7 Mb/s
  11. Encoded date                             : UTC 2022-06-10 03:49:15
  12. Writing application                      : mkvmerge v49.0.0 ('Sick Of Losing Soulmates') 64-bit
  13. Writing library                          : libebml v1.4.0 + libmatroska v1.6.1
  14. Video
  15. ID                                       : 1
  16. Format                                   : HEVC
  17. Format/Info                              : High Efficiency Video Coding
  18. Format profile                           : Main 10@L5.1@High
  19. Codec ID                                 : V_MPEGH/ISO/HEVC
  20. Duration                                 : 2 h 1 min
  21. Bit rate                                 : 8 953 kb/s
  22. Width                                    : 1 920 pixels
  23. Height                                   : 820 pixels
  24. Display aspect ratio                     : 2.35:1
  25. Frame rate mode                          : Constant
  26. Frame rate                               : 23.976 (24000/1001/53354) FPS
  27. Color space                              : YUV
  28. Chroma subsampling                       : 4:2:0
  29. Bit depth                                : 10 bits
  30. Bits/(Pixel*Frame)                       : 0.237
  31. Stream size                              : 7.58 GiB (65%)
  32. Title                                    : HEVC, x265Main10@L5.1@High, 24/1.001 fps @  8953 kbps
  33. Writing library                          : x265 3.5+36-1f2c8da77:[Windows][GCC 11.2.0][64 bit] 10bit
  34. Encoding settings                        : cpuid=533541111039 / frame-threads=4 / numa-pools=16 / wpp / no-pmode / no-pme / no-psnr / no-ssim / log-level=2 / input-csp=1 / input-res=1920x820 / interlace=0 / total-frames=174274 / level-idc=51 / high-tier=1 / uhd-bd=0 / ref=5 / no-allow-non-conformance / no-repeat-headers / annexb / no-aud / no-eob / no-eos / no-hrd / info / hash=0 / no-temporal-layers / open-gop / min-keyint=24 / keyint=240 / gop-lookahead=0 / bframes=6 / b-adapt=2 / b-pyramid / bframe-bias=0 / rc-lookahead=40 / lookahead-slices=0 / NTMzNTQ=uuDQuD2mJt9fsCf / scenecut=40 / no-hist-scenecut / radl=0 / no-splice / no-intra-refresh / ctu=32 / min-cu-size=8 / no-rect / no-amp / max-tu-size=32 / tu-inter-depth=3 / tu-intra-depth=3 / limit-tu=4 / rdoq-level=2 / dynamic-rd=0.00 / no-ssim-rd / signhide / no-tskip / nr-intra=0 / nr-inter=0 / no-constrained-intra / no-strong-intra-smoothing / max-merge=4 / limit-refs=1 / limit-modes / me=3 / subme=4 / merange=25 / temporal-mvp / no-frame-dup / no-hme / weightp / weightb / no-analyze-src-pics / deblock=-3:-3 / no-sao / no-sao-non-deblock / rd=6 / selective-sao=0 / no-early-skip / rskip / no-fast-intra / no-tskip-fast / no-cu-lossless / b-intra / no-splitrd-skip / rdpenalty=0 / psy-rd=2.00 / psy-rdoq=1.00 / no-rd-refine / no-lossless / cbqpoffs=-2 / crqpoffs=-2 / rc=crf / crf=19.5 / qcomp=0.65 / qpstep=4 / stats-write=0 / stats-read=0 / vbv-maxrate=80000 / vbv-bufsize=80000 / vbv-init=0.9 / min-vbv-fullness=50.0 / max-vbv-fullness=80.0 / crf-max=0.0 / crf-min=0.0 / ipratio=1.40 / pbratio=1.30 / aq-mode=2 / aq-strength=0.85 / cutree / zone-count=0 / no-strict-cbr / qg-size=32 / no-rc-grain / qpmax=69 / qpmin=0 / no-const-vbv / sar=1 / overscan=0 / videoformat=5 / range=0 / colorprim=1 / transfer=1 / colormatrix=1 / chromaloc=0 / display-window=0 / cll=0,0 / min-luma=0 / max-luma=1023 / log2-max-poc-lsb=8 / vui-timing-info / vui-hrd-info / slices=1 / no-opt-qp-pps / no-opt-ref-list-length-pps / no-multi-pass-opt-rps / scenecut-bias=0.05 / hist-threshold=0.03 / no-opt-cu-delta-qp / no-aq-motion / no-hdr10 / no-hdr10-opt / no-dhdr10-opt / no-idr-recovery-sei / analysis-reuse-level=0 / analysis-save-reuse-level=0 / analysis-load-reuse-level=0 / scale-factor=0 / refine-intra=0 / refine-inter=0 / refine-mv=1 / refine-ctu-distortion=0 / no-limit-sao / ctu-info=0 / no-lowpass-dct / refine-analysis-type=0 / copy-pic=1 / max-ausize-factor=1.0 / no-dynamic-refine / no-single-sei / no-hevc-aq / no-svt / no-field / qp-adaptation-range=1.00 / scenecut-aware-qp=0conformance-window-offsets / right=0 / bottom=0 / NTMzNTQ= / decoder-max-rate=0 / no-vbv-live-multi-pass
  35. Language                                 : English
  36. Default                                  : Yes
  37. Forced                                   : No
  38. Color range                              : Limited
  39. Color primaries                          : BT.709
  40. Transfer characteristics                 : BT.709
  41. Matrix coefficients                      : BT.709
  42. Audio #1
  43. ID                                       : 2
  44. Format                                   : MLP FBA
  45. Format/Info                              : Meridian Lossless Packing FBA
  46. Commercial name                          : Dolby TrueHD
  47. Codec ID                                 : A_TRUEHD
  48. Duration                                 : 2 h 1 min
  49. Bit rate mode                            : Variable
  50. Bit rate                                 : 3 528 kb/s
  51. Maximum bit rate                         : 4 938 kb/s
  52. Channel(s)                               : 6 channels
  53. Channel layout                           : L R C LFE Ls Rs
  54. Sampling rate                            : 48.0 kHz
  55. Frame rate                               : 1 200.000 FPS (40 SPF)
  56. Compression mode                         : Lossless
  57. Stream size                              : 2.99 GiB (26%)
  58. Title                                    : English Dolby TrueHD 5.1 @ 4168 kbps
  59. Language                                 : English
  60. Default                                  : Yes
  61. Forced                                   : No
  62. Audio #2
  63. ID                                       : 3
  64. Format                                   : AC-3
  65. Format/Info                              : Audio Coding 3
  66. Commercial name                          : Dolby Digital
  67. Codec ID                                 : A_AC3
  68. Duration                                 : 2 h 1 min
  69. Bit rate mode                            : Constant
  70. Bit rate                                 : 640 kb/s
  71. Channel(s)                               : 6 channels
  72. Channel layout                           : L R C LFE Ls Rs
  73. Sampling rate                            : 48.0 kHz
  74. Frame rate                               : 31.250 FPS (1536 SPF)
  75. Compression mode                         : Lossy
  76. Stream size                              : 555 MiB (5%)
  77. Title                                    : English Dolby Digital Audio 5.1 @ 640 kbps
  78. Language                                 : English
  79. Service kind                             : Complete Main
  80. Default                                  : No
  81. Forced                                   : No
  82. Audio #3
  83. ID                                       : 4
  84. Format                                   : AC-3
  85. Format/Info                              : Audio Coding 3
  86. Commercial name                          : Dolby Digital
  87. Codec ID                                 : A_AC3
  88. Duration                                 : 2 h 1 min
  89. Bit rate mode                            : Constant
  90. Bit rate                                 : 192 kb/s
  91. Channel(s)                               : 2 channels
  92. Channel layout                           : L R
  93. Sampling rate                            : 48.0 kHz
  94. Frame rate                               : 31.250 FPS (1536 SPF)
  95. Compression mode                         : Lossy
  96. Stream size                              : 166 MiB (1%)
  97. Title                                    : English Dolby Digital Audio 2.0 @ 192 kbps  Commentary 1
  98. Language                                 : English
  99. Service kind                             : Complete Main
  100. Default                                  : No
  101. Forced                                   : No
  102. Audio #4
  103. ID                                       : 5
  104. Format                                   : AC-3
  105. Format/Info                              : Audio Coding 3
  106. Commercial name                          : Dolby Digital
  107. Codec ID                                 : A_AC3
  108. Duration                                 : 2 h 1 min
  109. Bit rate mode                            : Constant
  110. Bit rate                                 : 192 kb/s
  111. Channel(s)                               : 2 channels
  112. Channel layout                           : L R
  113. Sampling rate                            : 48.0 kHz
  114. Frame rate                               : 31.250 FPS (1536 SPF)
  115. Compression mode                         : Lossy
  116. Stream size                              : 166 MiB (1%)
  117. Title                                    : English Dolby Digital Audio 2.0 @ 192 kbps  Commentary 2
  118. Language                                 : English
  119. Service kind                             : Complete Main
  120. Default                                  : No
  121. Forced                                   : No
  122. Text #1
  123. ID                                       : 6
  124. Format                                   : PGS
  125. Codec ID                                 : S_HDMV/PGS
  126. Codec ID/Info                            : Picture based subtitle format used on BDs/HD-DVDs
  127. Duration                                 : 1 h 52 min
  128. Bit rate                                 : 49.8 kb/s
  129. Count of elements                        : 3550
  130. Stream size                              : 40.1 MiB (0%)
  131. Title                                    : Eng/SUP
  132. Language                                 : English
  133. Default                                  : No
  134. Forced                                   : No
  135. Text #2
  136. ID                                       : 7
  137. Format                                   : PGS
  138. Codec ID                                 : S_HDMV/PGS
  139. Codec ID/Info                            : Picture based subtitle format used on BDs/HD-DVDs
  140. Duration                                 : 1 h 58 min
  141. Bit rate                                 : 51.1 kb/s
  142. Count of elements                        : 3906
  143. Stream size                              : 43.5 MiB (0%)
  144. Title                                    : Eng/SUP  SDH
  145. Language                                 : English
  146. Default                                  : No
  147. Forced                                   : No
  148. Text #3
  149. ID                                       : 8
  150. Format                                   : PGS
  151. Codec ID                                 : S_HDMV/PGS
  152. Codec ID/Info                            : Picture based subtitle format used on BDs/HD-DVDs
  153. Duration                                 : 1 h 59 min
  154. Bit rate                                 : 37.4 kb/s
  155. Count of elements                        : 3802
  156. Stream size                              : 31.9 MiB (0%)
  157. Title                                    : Chs/SUP  简体
  158. Language                                 : Chinese
  159. Default                                  : Yes
  160. Forced                                   : No
  161. Text #4
  162. ID                                       : 9
  163. Format                                   : PGS
  164. Codec ID                                 : S_HDMV/PGS
  165. Codec ID/Info                            : Picture based subtitle format used on BDs/HD-DVDs
  166. Duration                                 : 1 h 59 min
  167. Bit rate                                 : 38.2 kb/s
  168. Count of elements                        : 3802
  169. Stream size                              : 32.6 MiB (0%)
  170. Title                                    : Cht/SUP  繁体
  171. Language                                 : Chinese
  172. Default                                  : No
  173. Forced                                   : No
  174. Menu
  175. 00:00:00.000                             : en:第 01 章
  176. 00:03:58.155                             : en:第 02 章
  177. 00:10:17.534                             : en:第 03 章
  178. 00:15:46.779                             : en:第 04 章
  179. 00:20:44.660                             : en:第 05 章
  180. 00:28:43.180                             : en:第 06 章
  181. 00:35:07.564                             : en:第 07 章
  182. 00:41:16.349                             : en:第 08 章
  183. 00:47:16.125                             : en:第 09 章
  184. 00:50:50.965                             : en:第 10 章
  185. 00:55:45.509                             : en:第 11 章
  186. 00:59:31.234                             : en:第 12 章
  187. 01:03:47.198                             : en:第 13 章
  188. 01:10:31.853                             : en:第 14 章
  189. 01:12:59.417                             : en:第 15 章
  190. 01:16:54.610                             : en:第 16 章
  191. 01:21:29.134                             : en:第 17 章
  192. 01:25:42.637                             : en:第 18 章
  193. 01:28:59.793                             : en:第 19 章
  194. 01:34:41.342                             : en:第 20 章
  195. 01:38:44.252                             : en:第 21 章
  196. 01:45:07.551                             : en:第 22 章
  197. 01:51:14.209                             : en:第 23 章
  198. 01:52:57.354                             : en:第 24 章




下载地址:

Tropic.Thunder.2008.DC.BluRay.1080p.TrueHD.5.1.x265.10bit-ALT.torrent

BT9527电影天堂 1、BT9527电影天堂提供的BT文件均来源于互联网抓取,只供网友学习交流、技术提升使用。
2、我们遵守BitTorrent点对点协议原则,任何版权问题请联系原资源发布商,我们不处理任何版权纠纷,谢谢!如有争议请联系邮箱:BT9527#hotmail.com(#换成@)
3、如果您发现某页面或地址有错误,请联系站长邮箱BT9527#hotmail.com(#换成@),我们会尽快处理。您的热心是对BT9527电影天堂最大的支持。
4、本站建议去正规影院观看电影以支持电影行业发展。
最新回复 (0)

你可以在 登录 or 注册 后,对此帖发表评论!

返回
发新帖