爱在罗马[简繁英字幕].To.Rome.With.Love.2012.BluRay.1080p.TrueHD.7.1.x265.10bit-ALT 10.44GB

版主小s 1天前 32

✔资源类型:暂未分类   ✔电影年份:2012   ✔电影地区:欧美   ✔电影分类:喜剧

◎标  题 爱在罗马
◎译  名 情迷罗马(港) / 爱上罗马(台) / 尼禄弹琴 / 波普十日谈 / The Bop Decameron / Nero Fiddled
◎片  名 To Rome with Love
◎年  代 2012
◎产  地 美国 / 意大利 / 西班牙
◎类  别 喜剧 / 爱情
◎语  言 英语 / 意大利语
◎上映日期 2012-07-06(美国)
◎IMDb评分 6.3/10 (86713人评价)
◎IMDb链接 https://www.imdb.com/title/tt1859650/
◎豆瓣评分 7.6/10 (67354人评价)
◎豆瓣链接 https://movie.douban.com/subject/6128003/
◎片  长 112分钟
◎导  演 伍迪·艾伦 Woody Allen
◎编  剧 伍迪·艾伦 Woody Allen
◎演  员 杰西·艾森伯格 Jesse Eisenberg
       艾利奥特·佩吉 Elliot Page
       佩内洛普·克鲁兹 Penélope Cruz
       亚历克·鲍德温 Alec Baldwin
       罗伯托·贝尼尼 Roberto Benigni
       伍迪·艾伦 Woody Allen
       朱迪·戴维斯 Judy Davis
       弗拉维奥·帕伦蒂 Flavio Parenti
       里卡多·斯卡马乔 Riccardo Scamarcio
       格蕾塔·葛韦格 Greta Gerwig
       艾丽森·皮尔 Alison Pill
       亚历桑德拉·马斯特罗纳迪 Alessandra Mastronardi
       尼可莱塔·布拉斯基 Nicoletta Braschi
       大卫·帕斯奎斯 David Pasquesi
       弗朗西斯科·德·维托 Francesco De Vito
       亚历桑德罗·蒂贝里 Alessandro Tiberi
       马里塞尔·阿尔瓦雷斯 Maricel Álvarez
       Fabio Armiliato Fabio Armiliato

◎标  签 美国 / 喜剧 / 意大利 / 爱情 / 文艺 / 2012 / 西班牙 / 剧情

◎简  介
    美国游客Hayley(艾丽森·皮尔 Alison Pill 饰)在意大利旅行的时候,和意大利男子Michelangelo(弗拉维奥·帕伦蒂 Flavio Parenti 饰)坠入爱河,迅速订婚。Hayley的父母也从美国来到意大利和Michelangelo一家见面。Hayley的父亲Jerry(伍迪·艾伦 Woody Allen 饰)是一个退休的歌剧经纪人,他惊讶地发现Michelangelo父亲Giancarlo的歌剧才华,千方百计想把他推向市场......Antonio and Milly(亚历桑德拉·马斯特罗兰迪 Alessandra Mastronardi 饰)是一对新婚夫妇,从家乡来到罗马要开始新生活,Milly独自外出时却把手机弄丢了,找不到回去的路,更遇上了电影明星Luca Salta;而在酒店的Antonio则遇上了妓女Anna(佩妮洛普·克鲁兹 Penélope Cruz 饰),闹出了不少笑话......John(亚历克·鲍德温 Alec Baldwin 饰)回到了熟悉的意大利,认识了学建筑的学生Jack(杰西·艾森伯格 Jesse Eisenberg 饰),Jack正对他的女朋友的好友Monica(艾伦·佩吉 Ellen Page 饰)想入非非......一个普通的小职员Leopoldo(罗伯托·贝尼尼 Roberto Benigni 饰)一早醒来竟发现自己成了名人......在伦敦、巴塞罗那、巴黎之后,伍迪·艾伦又来到罗马,为您讲述发生在罗马的有趣故事。
  1. ##### MediaInfo ######
  2. General
  3. Unique ID                                : 168297161496600012323687402614095385197 (0x7E9CDAB2A11D6C09B3AA335AD180926D)
  4. Complete name                            : To.Rome.With.Love.2012.BluRay.1080p.TrueHD.7.1.x265.10bit-ALT.mkv
  5. Format                                   : Matroska
  6. Format version                           : Version 4
  7. File size                                : 10.4 GiB
  8. Duration                                 : 1 h 51 min
  9. Overall bit rate mode                    : Variable
  10. Overall bit rate                         : 13.4 Mb/s
  11. Encoded date                             : UTC 2022-02-24 06:46:59
  12. Writing application                      : mkvmerge v49.0.0 ('Sick Of Losing Soulmates') 64-bit
  13. Writing library                          : libebml v1.4.0 + libmatroska v1.6.1
  14. Video
  15. ID                                       : 1
  16. Format                                   : HEVC
  17. Format/Info                              : High Efficiency Video Coding
  18. Format profile                           : Main 10@L5.1@High
  19. Codec ID                                 : V_MPEGH/ISO/HEVC
  20. Duration                                 : 1 h 51 min
  21. Bit rate                                 : 9 300 kb/s
  22. Width                                    : 1 920 pixels
  23. Height                                   : 1 036 pixels
  24. Display aspect ratio                     : 1.85:1
  25. Frame rate mode                          : Constant
  26. Frame rate                               : 23.976 (24000/1001/53354) FPS
  27. Color space                              : YUV
  28. Chroma subsampling                       : 4:2:0
  29. Bit depth                                : 10 bits
  30. Bits/(Pixel*Frame)                       : 0.195
  31. Stream size                              : 7.24 GiB (69%)
  32. Title                                    : HEVC, x265Main10@L5.1@High, 24/1.001 fps @ 9300 kbps
  33. Writing library                          : x265 3.4+14-gd419c7152:[Windows][GCC 10.2.0][64 bit] 10bit
  34. Encoding settings                        : cpuid=533541111039 / frame-threads=4 / numa-pools=16 / wpp / pmode / pme / no-psnr / no-ssim / log-level=2 / input-csp=1 / input-res=1920x1036 / interlace=0 / total-frames=160316 / level-idc=51 / high-tier=1 / uhd-bd=0 / ref=5 / no-allow-non-conformance / no-repeat-headers / annexb / no-aud / no-hrd / info / hash=0 / no-temporal-layers / open-gop / min-keyint=24 / keyint=240 / gop-lookahead=0 / bframes=6 / b-adapt=2 / b-pyramid / bframe-bias=0 / rc-lookahead=40 / lookahead-slices=0 / NTMzNTQ=uuDQuD2mJt9fsCf / scenecut=40 / hist-scenecut=0 / radl=0 / no-splice / no-intra-refresh / ctu=32 / min-cu-size=8 / no-rect / no-amp / max-tu-size=32 / tu-inter-depth=3 / tu-intra-depth=3 / limit-tu=4 / rdoq-level=2 / dynamic-rd=0.00 / no-ssim-rd / signhide / no-tskip / nr-intra=0 / nr-inter=0 / no-constrained-intra / no-strong-intra-smoothing / max-merge=4 / limit-refs=1 / limit-modes / me=3 / subme=4 / merange=25 / temporal-mvp / no-frame-dup / no-hme / weightp / weightb / no-analyze-src-pics / deblock=-3:-3 / no-sao / no-sao-non-deblock / rd=6 / selective-sao=0 / no-early-skip / rskip / no-fast-intra / no-tskip-fast / no-cu-lossless / b-intra / no-splitrd-skip / rdpenalty=0 / psy-rd=2.00 / psy-rdoq=1.00 / no-rd-refine / no-lossless / cbqpoffs=0 / crqpoffs=0 / rc=crf / crf=18.5 / qcomp=0.65 / qpstep=4 / stats-write=0 / stats-read=0 / vbv-maxrate=80000 / vbv-bufsize=80000 / vbv-init=0.9 / crf-max=0.0 / crf-min=0.0 / ipratio=1.40 / pbratio=1.30 / aq-mode=2 / aq-strength=0.85 / cutree / zone-count=0 / no-strict-cbr / qg-size=32 / no-rc-grain / qpmax=69 / qpmin=0 / no-const-vbv / sar=1 / overscan=0 / videoformat=5 / range=0 / colorprim=1 / transfer=1 / colormatrix=1 / chromaloc=0 / display-window=0 / cll=0,0 / min-luma=0 / max-luma=1023 / log2-max-poc-lsb=8 / vui-timing-info / vui-hrd-info / slices=1 / no-opt-qp-pps / no-opt-ref-list-length-pps / no-multi-pass-opt-rps / scenecut-bias=0.05 / hist-threshold=0.03 / no-opt-cu-delta-qp / no-aq-motion / no-hdr10 / no-hdr10-opt / no-dhdr10-opt / no-idr-recovery-sei / analysis-reuse-level=0 / analysis-save-reuse-level=0 / analysis-load-reuse-level=0 / scale-factor=0 / refine-intra=0 / refine-inter=0 / refine-mv=1 / refine-ctu-distortion=0 / no-limit-sao / ctu-info=0 / no-lowpass-dct / refine-analysis-type=0 / copy-pic=1 / max-ausize-factor=1.0 / no-dynamic-refine / no-single-sei / no-hevc-aq / no-svt / no-field / qp-adaptation-range=1.00 / no-scenecut-aware-qpconformance-window-offsets / right=0 / bottom=0 / NTMzNTQ= / decoder-max-rate=0
  35. Language                                 : English
  36. Default                                  : Yes
  37. Forced                                   : No
  38. Color range                              : Limited
  39. Color primaries                          : BT.709
  40. Transfer characteristics                 : BT.709
  41. Matrix coefficients                      : BT.709
  42. Audio #1
  43. ID                                       : 2
  44. Format                                   : MLP FBA
  45. Format/Info                              : Meridian Lossless Packing FBA
  46. Commercial name                          : Dolby TrueHD
  47. Codec ID                                 : A_TRUEHD
  48. Duration                                 : 1 h 51 min
  49. Bit rate mode                            : Variable
  50. Bit rate                                 : 3 293 kb/s
  51. Maximum bit rate                         : 5 526 kb/s
  52. Channel(s)                               : 8 channels
  53. Channel layout                           : L R C LFE Ls Rs Lb Rb
  54. Sampling rate                            : 96.0 kHz
  55. Frame rate                               : 1 200.000 FPS (80 SPF)
  56. Compression mode                         : Lossless
  57. Stream size                              : 2.56 GiB (25%)
  58. Title                                    : English Dolby TrueHD 7.1 (Atmos) @ 3293 kbps
  59. Language                                 : English
  60. Default                                  : Yes
  61. Forced                                   : No
  62. Audio #2
  63. ID                                       : 3
  64. Format                                   : AC-3
  65. Format/Info                              : Audio Coding 3
  66. Commercial name                          : Dolby Digital
  67. Codec ID                                 : A_AC3
  68. Duration                                 : 1 h 51 min
  69. Bit rate mode                            : Constant
  70. Bit rate                                 : 640 kb/s
  71. Channel(s)                               : 6 channels
  72. Channel layout                           : L R C LFE Ls Rs
  73. Sampling rate                            : 48.0 kHz
  74. Frame rate                               : 31.250 FPS (1536 SPF)
  75. Compression mode                         : Lossy
  76. Stream size                              : 510 MiB (5%)
  77. Title                                    : English AC3 5.1-EX @ 640 kbps
  78. Language                                 : English
  79. Service kind                             : Complete Main
  80. Default                                  : No
  81. Forced                                   : No
  82. Text #1
  83. ID                                       : 4
  84. Format                                   : PGS
  85. Codec ID                                 : S_HDMV/PGS
  86. Codec ID/Info                            : Picture based subtitle format used on BDs/HD-DVDs
  87. Duration                                 : 1 h 46 min
  88. Bit rate                                 : 43.5 kb/s
  89. Count of elements                        : 3388
  90. Stream size                              : 33.3 MiB (0%)
  91. Title                                    : Eng/SUP
  92. Language                                 : English
  93. Default                                  : No
  94. Forced                                   : No
  95. Text #2
  96. ID                                       : 5
  97. Format                                   : PGS
  98. Codec ID                                 : S_HDMV/PGS
  99. Codec ID/Info                            : Picture based subtitle format used on BDs/HD-DVDs
  100. Duration                                 : 1 h 46 min
  101. Bit rate                                 : 33.7 kb/s
  102. Count of elements                        : 3388
  103. Stream size                              : 25.8 MiB (0%)
  104. Title                                    : Chs/SUP  原盘简体
  105. Language                                 : Chinese
  106. Default                                  : Yes
  107. Forced                                   : No
  108. Text #3
  109. ID                                       : 6
  110. Format                                   : PGS
  111. Codec ID                                 : S_HDMV/PGS
  112. Codec ID/Info                            : Picture based subtitle format used on BDs/HD-DVDs
  113. Duration                                 : 1 h 46 min
  114. Bit rate                                 : 36.6 kb/s
  115. Count of elements                        : 3388
  116. Stream size                              : 28.0 MiB (0%)
  117. Title                                    : Cht/SUP  原盘繁体
  118. Language                                 : Chinese
  119. Default                                  : No
  120. Forced                                   : No
  121. Menu
  122. 00:00:00.000                             : en:第 01 章
  123. 00:05:10.018                             : en:第 02 章
  124. 00:12:17.654                             : en:第 03 章
  125. 00:15:50.283                             : en:第 04 章
  126. 00:19:17.073                             : en:第 05 章
  127. 00:24:31.970                             : en:第 06 章
  128. 00:28:43.680                             : en:第 07 章
  129. 00:35:21.619                             : en:第 08 章
  130. 00:40:52.283                             : en:第 09 章
  131. 00:47:07.241                             : en:第 10 章
  132. 00:55:23.195                             : en:第 11 章
  133. 01:02:10.894                             : en:第 12 章
  134. 01:07:03.228                             : en:第 13 章
  135. 01:13:37.204                             : en:第 14 章
  136. 01:17:50.082                             : en:第 15 章
  137. 01:21:25.089                             : en:第 16 章
  138. 01:27:06.430                             : en:第 17 章
  139. 01:34:38.339                             : en:第 18 章
  140. 01:40:39.408                             : en:第 19 章
  141. 01:45:35.746                             : en:第 20 章




下载地址:

To.Rome.With.Love.2012.BluRay.1080p.TrueHD.7.1.x265.10bit-ALT.torrent

BT9527电影天堂 1、BT9527电影天堂提供的BT文件均来源于互联网抓取,只供网友学习交流、技术提升使用。
2、我们遵守BitTorrent点对点协议原则,任何版权问题请联系原资源发布商,我们不处理任何版权纠纷,谢谢!如有争议请联系邮箱:BT9527#hotmail.com(#换成@)
3、如果您发现某页面或地址有错误,请联系站长邮箱BT9527#hotmail.com(#换成@),我们会尽快处理。您的热心是对BT9527电影天堂最大的支持。
4、本站建议去正规影院观看电影以支持电影行业发展。
最新回复 (0)

你可以在 登录 or 注册 后,对此帖发表评论!

返回
发新帖