不惜一切[简繁字幕].To.Die.For.1995.BluRay.1080p.DTS-HD.MA5.1.x265.10bit-ALT 10.17GB

版主小s 1天前 32

✔资源类型:暂未分类   ✔电影年份:更 早   ✔电影地区:欧美   ✔电影分类:喜剧

◎标  题 不惜一切
◎译  名 妮可基曼爱的机密(台) / 爱的机密
◎片  名 To Die For
◎年  代 1995
◎产  地 英国 / 法国
◎类  别 喜剧 / 犯罪
◎语  言 英语
◎上映日期 1995-05-20(戛纳电影节) / 1995-10-27(英国) / 1995-12-06(法国)
◎IMDb评分 6.8/10 (46554人评价)
◎IMDb链接 https://www.imdb.com/title/tt0114681/
◎豆瓣链接 https://movie.douban.com/subject/1297768/
◎片  长 106 分钟 / Argentina: 110 分钟

◎标  签 NicoleKidman / 美国 / GusVanSant / 犯罪 / 1995 / 剧情 / 美国电影 / 妮可·基德曼

◎简  介
    天气播报员苏珊(尼克·基德曼 Nicole Kidman 饰)因涉嫌丈夫被害的谋杀案一时成为媒体焦点,数位当事人的访谈将事件的过程逐步呈现……                                    
                                  立志从事新闻事业的苏珊雄心万丈,不顾丈夫拉利(马特·狄龙 Matt Dillon 饰)的意大利裔家庭反对,全力进行入行的相应准备,并最终为当地一家仅两名工作人员的有线电视台聘用,担任“天气女郎”。苏珊高昂的工作热情并未被消极的环境打退,不断提出工作计划,并着手深入学校的青年访谈系列节目,由此结识了詹姆斯(杰昆·菲尼克斯 Joaquin Phoenix 饰)等三位叛逆青年,詹姆斯深深迷恋苏珊。当苏珊意识到丈夫正在成为她事业上的障碍时,利用詹姆斯枪杀了拉利。苏珊自认是最后的赢家,但情况突然急转直下。
  1. ##### MediaInfo ######
  2. General
  3. Unique ID                                : 248987544214025579900192400553405359410 (0xBB5141B84767BDA5FE84C05C58C0A532)
  4. Complete name                            : To.Die.For.1995.BluRay.1080p.DTS-HD.MA5.1.x265.10bit-ALT.mkv
  5. Format                                   : Matroska
  6. Format version                           : Version 4
  7. File size                                : 10.2 GiB
  8. Duration                                 : 1 h 46 min
  9. Overall bit rate mode                    : Variable
  10. Overall bit rate                         : 13.7 Mb/s
  11. Encoded date                             : UTC 2022-02-05 05:10:45
  12. Writing application                      : mkvmerge v49.0.0 ('Sick Of Losing Soulmates') 64-bit
  13. Writing library                          : libebml v1.4.0 + libmatroska v1.6.1
  14. Video
  15. ID                                       : 1
  16. Format                                   : HEVC
  17. Format/Info                              : High Efficiency Video Coding
  18. Format profile                           : Main 10@L5.1@High
  19. Codec ID                                 : V_MPEGH/ISO/HEVC
  20. Duration                                 : 1 h 46 min
  21. Bit rate                                 : 11.8 Mb/s
  22. Width                                    : 1 920 pixels
  23. Height                                   : 1 080 pixels
  24. Display aspect ratio                     : 16:9
  25. Frame rate mode                          : Constant
  26. Frame rate                               : 23.976 (24000/1001/53354) FPS
  27. Color space                              : YUV
  28. Chroma subsampling                       : 4:2:0
  29. Bit depth                                : 10 bits
  30. Bits/(Pixel*Frame)                       : 0.237
  31. Stream size                              : 8.75 GiB (86%)
  32. Title                                    : HEVC, x265Main10@L5.1@High, 24/1.001 fps @ 11772 kbps
  33. Writing library                          : x265 3.4+14-gd419c7152:[Windows][GCC 10.2.0][64 bit] 10bit
  34. Encoding settings                        : cpuid=533541111039 / frame-threads=4 / numa-pools=16 / wpp / pmode / pme / no-psnr / no-ssim / log-level=2 / input-csp=1 / input-res=1920x1080 / interlace=0 / total-frames=153042 / level-idc=51 / high-tier=1 / uhd-bd=0 / ref=5 / no-allow-non-conformance / no-repeat-headers / annexb / no-aud / no-hrd / info / hash=0 / no-temporal-layers / open-gop / min-keyint=24 / keyint=240 / gop-lookahead=0 / bframes=6 / b-adapt=2 / b-pyramid / bframe-bias=0 / rc-lookahead=40 / lookahead-slices=0 / NTMzNTQ=uuDQuD2mJt9fsCf / scenecut=40 / hist-scenecut=0 / radl=0 / no-splice / no-intra-refresh / ctu=32 / min-cu-size=8 / no-rect / no-amp / max-tu-size=32 / tu-inter-depth=3 / tu-intra-depth=3 / limit-tu=4 / rdoq-level=2 / dynamic-rd=0.00 / no-ssim-rd / signhide / no-tskip / nr-intra=0 / nr-inter=0 / no-constrained-intra / no-strong-intra-smoothing / max-merge=4 / limit-refs=1 / limit-modes / me=3 / subme=4 / merange=25 / temporal-mvp / no-frame-dup / no-hme / weightp / weightb / no-analyze-src-pics / deblock=-3:-3 / no-sao / no-sao-non-deblock / rd=6 / selective-sao=0 / no-early-skip / rskip / no-fast-intra / no-tskip-fast / no-cu-lossless / b-intra / no-splitrd-skip / rdpenalty=0 / psy-rd=2.00 / psy-rdoq=1.00 / no-rd-refine / no-lossless / cbqpoffs=0 / crqpoffs=0 / rc=crf / crf=19.5 / qcomp=0.65 / qpstep=4 / stats-write=0 / stats-read=0 / vbv-maxrate=80000 / vbv-bufsize=80000 / vbv-init=0.9 / crf-max=0.0 / crf-min=0.0 / ipratio=1.40 / pbratio=1.30 / aq-mode=2 / aq-strength=0.85 / cutree / zone-count=0 / no-strict-cbr / qg-size=32 / no-rc-grain / qpmax=69 / qpmin=0 / no-const-vbv / sar=1 / overscan=0 / videoformat=5 / range=0 / colorprim=1 / transfer=1 / colormatrix=1 / chromaloc=0 / display-window=0 / cll=0,0 / min-luma=0 / max-luma=1023 / log2-max-poc-lsb=8 / vui-timing-info / vui-hrd-info / slices=1 / no-opt-qp-pps / no-opt-ref-list-length-pps / no-multi-pass-opt-rps / scenecut-bias=0.05 / hist-threshold=0.03 / no-opt-cu-delta-qp / no-aq-motion / no-hdr10 / no-hdr10-opt / no-dhdr10-opt / no-idr-recovery-sei / analysis-reuse-level=0 / analysis-save-reuse-level=0 / analysis-load-reuse-level=0 / scale-factor=0 / refine-intra=0 / refine-inter=0 / refine-mv=1 / refine-ctu-distortion=0 / no-limit-sao / ctu-info=0 / no-lowpass-dct / refine-analysis-type=0 / copy-pic=1 / max-ausize-factor=1.0 / no-dynamic-refine / no-single-sei / no-hevc-aq / no-svt / no-field / qp-adaptation-range=1.00 / no-scenecut-aware-qpconformance-window-offsets / right=0 / bottom=0 / NTMzNTQ= / decoder-max-rate=0
  35. Language                                 : English
  36. Default                                  : Yes
  37. Forced                                   : No
  38. Color range                              : Limited
  39. Color primaries                          : BT.709
  40. Transfer characteristics                 : BT.709
  41. Matrix coefficients                      : BT.709
  42. Audio
  43. ID                                       : 2
  44. Format                                   : DTS XLL
  45. Format/Info                              : Digital Theater Systems
  46. Commercial name                          : DTS-HD Master Audio
  47. Codec ID                                 : A_DTS
  48. Duration                                 : 1 h 46 min
  49. Bit rate mode                            : Variable
  50. Bit rate                                 : 1 864 kb/s
  51. Channel(s)                               : 6 channels
  52. Channel layout                           : C L R Ls Rs LFE
  53. Sampling rate                            : 48.0 kHz
  54. Frame rate                               : 93.750 FPS (512 SPF)
  55. Bit depth                                : 16 bits
  56. Compression mode                         : Lossless
  57. Stream size                              : 1.39 GiB (14%)
  58. Title                                    : English DTS-HD Master Audio 5.1 @ 1864 kbps
  59. Language                                 : English
  60. Default                                  : Yes
  61. Forced                                   : No
  62. Text #1
  63. ID                                       : 3
  64. Format                                   : PGS
  65. Codec ID                                 : S_HDMV/PGS
  66. Codec ID/Info                            : Picture based subtitle format used on BDs/HD-DVDs
  67. Duration                                 : 1 h 40 min
  68. Bit rate                                 : 25.5 kb/s
  69. Count of elements                        : 2468
  70. Stream size                              : 18.4 MiB (0%)
  71. Title                                    : Chs/SUP  简体
  72. Language                                 : Chinese
  73. Default                                  : Yes
  74. Forced                                   : No
  75. Text #2
  76. ID                                       : 4
  77. Format                                   : PGS
  78. Codec ID                                 : S_HDMV/PGS
  79. Codec ID/Info                            : Picture based subtitle format used on BDs/HD-DVDs
  80. Duration                                 : 1 h 40 min
  81. Bit rate                                 : 26.7 kb/s
  82. Count of elements                        : 2468
  83. Stream size                              : 19.2 MiB (0%)
  84. Title                                    : Cht/SUP  繁体
  85. Language                                 : Chinese
  86. Default                                  : No
  87. Forced                                   : No
  88. Menu
  89. 00:00:00.000                             : en:第 01 章
  90. 00:11:14.591                             : en:第 02 章
  91. 00:18:37.366                             : en:第 03 章
  92. 00:28:08.937                             : en:第 04 章
  93. 00:35:38.094                             : en:第 05 章
  94. 00:45:46.243                             : en:第 06 章
  95. 00:54:47.117                             : en:第 07 章
  96. 01:02:17.359                             : en:第 08 章
  97. 01:10:58.713                             : en:第 09 章
  98. 01:18:17.151                             : en:第 10 章
  99. 01:29:58.852                             : en:第 11 章
  100. 01:36:26.990                             : en:第 12 章


下载地址:

To.Die.For.1995.BluRay.1080p.DTS-HD.MA5.1.x265.10bit-ALT.torrent

BT9527电影天堂 1、BT9527电影天堂提供的BT文件均来源于互联网抓取,只供网友学习交流、技术提升使用。
2、我们遵守BitTorrent点对点协议原则,任何版权问题请联系原资源发布商,我们不处理任何版权纠纷,谢谢!如有争议请联系邮箱:BT9527#hotmail.com(#换成@)
3、如果您发现某页面或地址有错误,请联系站长邮箱BT9527#hotmail.com(#换成@),我们会尽快处理。您的热心是对BT9527电影天堂最大的支持。
4、本站建议去正规影院观看电影以支持电影行业发展。
最新回复 (0)

你可以在 登录 or 注册 后,对此帖发表评论!

返回
发新帖