他们最好的[简繁英双语字幕].Their.Finest.2016.BluRay.1080p.DTS-HD.MA5.1.x265.10bit-ALT 10.72GB

版主小s 1天前 23

✔资源类型:暂未分类   ✔电影年份:2016   ✔电影地区:欧美   ✔电影分类:剧情

◎标  题 他们最好的
◎译  名 编写美好时光(港) / 他们的美好时光(台) / 她们最好的 / 他们的最好时光 / Their Finest Hour and a Half / We Happy Few
◎片  名 Their Finest
◎年  代 2016
◎产  地 英国 / 瑞典 / 法国
◎类  别 剧情 / 喜剧 / 爱情 / 战争
◎语  言 英语 / 匈牙利语 / 波兰语 / 法语
◎上映日期 2016-09-11(多伦多电影节) / 2017-04-21(英国)
◎IMDb评分 6.8/10 (19120人评价)
◎IMDb链接 https://www.imdb.com/title/tt1661275/
◎豆瓣评分 7.7/10 (7245人评价)
◎豆瓣链接 https://movie.douban.com/subject/5327224/
◎片  长 117分钟
◎导  演 罗勒·莎菲 Lone Scherfig
◎编  剧 丽莎·伊万斯 Lissa Evans
       盖比·奇亚普 Gaby Chiappe
◎演  员 山姆·克拉弗林 Sam Claflin
       杰玛·阿特登 Gemma Arterton
       理查德·E·格兰特 Richard E. Grant
       亨利·古德曼 Henry Goodman
       蕾切尔·斯特灵 Rachael Stirling
       杰克·休斯顿 Jack Huston
       比尔·奈伊 Bill Nighy
       阿曼达·鲁特 Amanda Root
       帕特里克·吉布森 Patrick Gibson
       艾德·伯奇 Ed Birch
       丽莎·伊万斯 Lissa Evans
       盖比·奇亚普 Gaby Chiappe
       阿曼达·费尔班克-海恩斯 Amanda Fairbank-Hynes
       莉莉·奈特 Lily Knight
       弗朗西丝卡·奈特 Francesca Knight
       阿尔菲·斯图尔特 Alfie Stewart
       杰伊·辛普森 Jay Simpson
       保罗·里特 Paul Ritter
       埃迪·马森 Eddie Marsan
       克劳迪亚·杰西 Claudia Jessie
       斯蒂芬妮·海姆 Stephanie Hyam
       Natalia Ryumina Natalia Ryumina
       海伦·麦克洛瑞 Helen McCrory
       丽贝卡·赛尔 Rebecca Saire
       杰瑞米·艾恩斯 Jeremy Irons
       杰克·莱西 Jake Lacy
       米尔斯·理查森 Miles Richardson
       戈登·布朗 Gordon Brown
       休伯特·伯顿 Hubert Burton
       迈克尔·马库斯 Michael Marcus
       埃莉·哈丁顿 Ellie Haddington
       艾玛·康妮芙 Emma Cunniffe
       嘉芙莲·哈里森 Kathleen Harrison
       凯茜·墨菲 Cathy Murphy
       克里夫·罗素 Clive Russell
       Lee Whitlock Lee Whitlock
       理查德·西姆斯 Richard Syms
       弗朗西斯·杰特 Frances Jeater

◎标  签 英国 / 二战 / 女性 / 爱情 / 战争 / 剧情 / 喜剧 / 2016

◎简  介
    1940年的英国战争不断,每天都有敌军的空袭轰炸,但比满目疮痍伦敦更残破的是人民绝望的心,面对未知的生命无常,电影成了唯一的心灵慰藉。资讯局电影部想要提升国家士气和民心,开始拍摄政治宣传电影,为了增加电影中的女性观点,原本从事广告文案的凯瑟琳(杰玛·阿特登 饰)被邀请加入编剧小组,和主编巴克利(山姆·克拉弗林 饰)一起编写歌颂英国人在敦刻尔克行动中英勇事迹的剧本。大男人的巴克利遇上温柔的凯瑟琳,挖苦彼此的对白、斗嘴不断,但随着两人一起经历疯狂赶戏和剧本,默契和爱苗都悄悄滋长。然而战事持续恶化,电影拍摄也面临困境,凯瑟琳还要面对自己已婚的事实⋯⋯
  1. ##### MediaInfo ######
  2. General
  3. Unique ID                                : 41311919880813103341366603823607118526 (0x1F1462E837B095BA69CC7ECE4EFAFABE)
  4. Complete name                            : Their.Finest.2016.BluRay.1080p.DTS-HD.MA5.1.x265.10bit-ALT.mkv
  5. Format                                   : Matroska
  6. Format version                           : Version 4
  7. File size                                : 10.7 GiB
  8. Duration                                 : 1 h 56 min
  9. Overall bit rate mode                    : Variable
  10. Overall bit rate                         : 13.1 Mb/s
  11. Encoded date                             : UTC 2022-05-23 11:28:34
  12. Writing application                      : mkvmerge v49.0.0 ('Sick Of Losing Soulmates') 64-bit
  13. Writing library                          : libebml v1.4.0 + libmatroska v1.6.1
  14. Video
  15. ID                                       : 1
  16. Format                                   : HEVC
  17. Format/Info                              : High Efficiency Video Coding
  18. Format profile                           : Main 10@L5.1@High
  19. Codec ID                                 : V_MPEGH/ISO/HEVC
  20. Duration                                 : 1 h 56 min
  21. Bit rate                                 : 9 257 kb/s
  22. Width                                    : 1 920 pixels
  23. Height                                   : 802 pixels
  24. Display aspect ratio                     : 2.40:1
  25. Frame rate mode                          : Constant
  26. Frame rate                               : 23.976 (24000/1001/53354) FPS
  27. Color space                              : YUV
  28. Chroma subsampling                       : 4:2:0
  29. Bit depth                                : 10 bits
  30. Bits/(Pixel*Frame)                       : 0.251
  31. Stream size                              : 7.56 GiB (71%)
  32. Title                                    : HEVC, x265Main10@L5.1@High, 24/1.001 fps @ 9256 kbps
  33. Writing library                          : x265 3.5+36-1f2c8da77:[Windows][GCC 11.2.0][64 bit] 10bit
  34. Encoding settings                        : cpuid=533541111039 / frame-threads=4 / numa-pools=16 / wpp / no-pmode / no-pme / no-psnr / no-ssim / log-level=2 / input-csp=1 / input-res=1920x802 / interlace=0 / total-frames=168289 / level-idc=51 / high-tier=1 / uhd-bd=0 / ref=5 / no-allow-non-conformance / no-repeat-headers / annexb / no-aud / no-eob / no-eos / no-hrd / info / hash=0 / no-temporal-layers / open-gop / min-keyint=24 / keyint=240 / gop-lookahead=0 / bframes=6 / b-adapt=2 / b-pyramid / bframe-bias=0 / rc-lookahead=40 / lookahead-slices=0 / NTMzNTQ=uuDQuD2mJt9fsCf / scenecut=40 / no-hist-scenecut / radl=0 / no-splice / no-intra-refresh / ctu=32 / min-cu-size=8 / no-rect / no-amp / max-tu-size=32 / tu-inter-depth=3 / tu-intra-depth=3 / limit-tu=4 / rdoq-level=2 / dynamic-rd=0.00 / no-ssim-rd / signhide / no-tskip / nr-intra=0 / nr-inter=0 / no-constrained-intra / no-strong-intra-smoothing / max-merge=4 / limit-refs=1 / limit-modes / me=3 / subme=4 / merange=25 / temporal-mvp / no-frame-dup / no-hme / weightp / weightb / no-analyze-src-pics / deblock=-3:-3 / no-sao / no-sao-non-deblock / rd=6 / selective-sao=0 / no-early-skip / rskip / no-fast-intra / no-tskip-fast / no-cu-lossless / b-intra / no-splitrd-skip / rdpenalty=0 / psy-rd=2.00 / psy-rdoq=1.00 / no-rd-refine / no-lossless / cbqpoffs=-2 / crqpoffs=-2 / rc=crf / crf=17.0 / qcomp=0.65 / qpstep=4 / stats-write=0 / stats-read=0 / vbv-maxrate=80000 / vbv-bufsize=80000 / vbv-init=0.9 / min-vbv-fullness=50.0 / max-vbv-fullness=80.0 / crf-max=0.0 / crf-min=0.0 / ipratio=1.40 / pbratio=1.30 / aq-mode=2 / aq-strength=0.85 / cutree / zone-count=0 / no-strict-cbr / qg-size=32 / no-rc-grain / qpmax=69 / qpmin=0 / no-const-vbv / sar=1 / overscan=0 / videoformat=5 / range=0 / colorprim=1 / transfer=1 / colormatrix=1 / chromaloc=0 / display-window=0 / cll=0,0 / min-luma=0 / max-luma=1023 / log2-max-poc-lsb=8 / vui-timing-info / vui-hrd-info / slices=1 / no-opt-qp-pps / no-opt-ref-list-length-pps / no-multi-pass-opt-rps / scenecut-bias=0.05 / hist-threshold=0.03 / no-opt-cu-delta-qp / no-aq-motion / no-hdr10 / no-hdr10-opt / no-dhdr10-opt / no-idr-recovery-sei / analysis-reuse-level=0 / analysis-save-reuse-level=0 / analysis-load-reuse-level=0 / scale-factor=0 / refine-intra=0 / refine-inter=0 / refine-mv=1 / refine-ctu-distortion=0 / no-limit-sao / ctu-info=0 / no-lowpass-dct / refine-analysis-type=0 / copy-pic=1 / max-ausize-factor=1.0 / no-dynamic-refine / no-single-sei / no-hevc-aq / no-svt / no-field / qp-adaptation-range=1.00 / scenecut-aware-qp=0conformance-window-offsets / right=0 / bottom=0 / NTMzNTQ= / decoder-max-rate=0 / no-vbv-live-multi-pass
  35. Language                                 : English
  36. Default                                  : Yes
  37. Forced                                   : No
  38. Color range                              : Limited
  39. Color primaries                          : BT.709
  40. Transfer characteristics                 : BT.709
  41. Matrix coefficients                      : BT.709
  42. Audio #1
  43. ID                                       : 2
  44. Format                                   : DTS XLL
  45. Format/Info                              : Digital Theater Systems
  46. Commercial name                          : DTS-HD Master Audio
  47. Codec ID                                 : A_DTS
  48. Duration                                 : 1 h 56 min
  49. Bit rate mode                            : Variable
  50. Bit rate                                 : 3 322 kb/s
  51. Channel(s)                               : 6 channels
  52. Channel layout                           : C L R Ls Rs LFE
  53. Sampling rate                            : 48.0 kHz
  54. Frame rate                               : 93.750 FPS (512 SPF)
  55. Bit depth                                : 24 bits
  56. Compression mode                         : Lossless
  57. Stream size                              : 2.71 GiB (25%)
  58. Title                                    : English DTS-HD Master Audio 5.1 @ 3323 kbps
  59. Language                                 : English
  60. Default                                  : Yes
  61. Forced                                   : No
  62. Audio #2
  63. ID                                       : 3
  64. Format                                   : AC-3
  65. Format/Info                              : Audio Coding 3
  66. Commercial name                          : Dolby Digital
  67. Codec ID                                 : A_AC3
  68. Duration                                 : 1 h 56 min
  69. Bit rate mode                            : Constant
  70. Bit rate                                 : 384 kb/s
  71. Channel(s)                               : 2 channels
  72. Channel layout                           : L R
  73. Sampling rate                            : 48.0 kHz
  74. Frame rate                               : 31.250 FPS (1536 SPF)
  75. Compression mode                         : Lossy
  76. Stream size                              : 321 MiB (3%)
  77. Title                                    : English Dolby Digital Audio 2.0 @ 384 kbps Commentary
  78. Language                                 : English
  79. Service kind                             : Complete Main
  80. Default                                  : No
  81. Forced                                   : No
  82. Text #1
  83. ID                                       : 4
  84. Format                                   : PGS
  85. Codec ID                                 : S_HDMV/PGS
  86. Codec ID/Info                            : Picture based subtitle format used on BDs/HD-DVDs
  87. Duration                                 : 1 h 52 min
  88. Bit rate                                 : 45.2 kb/s
  89. Count of elements                        : 3545
  90. Stream size                              : 36.5 MiB (0%)
  91. Title                                    : Eng/SUP
  92. Language                                 : English
  93. Default                                  : No
  94. Forced                                   : No
  95. Text #2
  96. ID                                       : 5
  97. Format                                   : PGS
  98. Codec ID                                 : S_HDMV/PGS
  99. Codec ID/Info                            : Picture based subtitle format used on BDs/HD-DVDs
  100. Duration                                 : 1 h 53 min
  101. Bit rate                                 : 57.4 kb/s
  102. Count of elements                        : 2560
  103. Stream size                              : 46.5 MiB (0%)
  104. Title                                    : Chs/SUP  简英双语
  105. Language                                 : Chinese
  106. Default                                  : Yes
  107. Forced                                   : No
  108. Text #3
  109. ID                                       : 6
  110. Format                                   : PGS
  111. Codec ID                                 : S_HDMV/PGS
  112. Codec ID/Info                            : Picture based subtitle format used on BDs/HD-DVDs
  113. Duration                                 : 1 h 53 min
  114. Bit rate                                 : 57.8 kb/s
  115. Count of elements                        : 2560
  116. Stream size                              : 46.9 MiB (0%)
  117. Title                                    : Cht/SUP  繁英双语
  118. Language                                 : Chinese
  119. Default                                  : No
  120. Forced                                   : No
  121. Menu
  122. 00:00:00.000                             : en:第 01 章
  123. 00:07:49.302                             : en:第 02 章
  124. 00:15:15.706                             : en:第 03 章
  125. 00:21:08.017                             : en:第 04 章
  126. 00:30:43.633                             : en:第 05 章
  127. 00:38:24.052                             : en:第 06 章
  128. 00:46:26.784                             : en:第 07 章
  129. 00:53:51.186                             : en:第 08 章
  130. 01:00:41.596                             : en:第 09 章
  131. 01:08:32.358                             : en:第 10 章
  132. 01:18:48.557                             : en:第 11 章
  133. 01:22:49.798                             : en:第 12 章
  134. 01:29:51.010                             : en:第 13 章
  135. 01:37:05.403                             : en:第 14 章
  136. 01:45:05.341                             : en:第 15 章
  137. 01:50:42.260                             : en:第 16 章




下载地址:

Their.Finest.2016.BluRay.1080p.DTS-HD.MA5.1.x265.10bit-ALT.torrent

BT9527电影天堂 1、BT9527电影天堂提供的BT文件均来源于互联网抓取,只供网友学习交流、技术提升使用。
2、我们遵守BitTorrent点对点协议原则,任何版权问题请联系原资源发布商,我们不处理任何版权纠纷,谢谢!如有争议请联系邮箱:BT9527#hotmail.com(#换成@)
3、如果您发现某页面或地址有错误,请联系站长邮箱BT9527#hotmail.com(#换成@),我们会尽快处理。您的热心是对BT9527电影天堂最大的支持。
4、本站建议去正规影院观看电影以支持电影行业发展。
最新回复 (0)

你可以在 登录 or 注册 后,对此帖发表评论!

返回
发新帖