呼啸山庄[中文字幕].Wuthering.Heights.1992.4K.WEB-DL.H265.AAC-MOMOWEB 2.38GB

版主小s 2天前 96

✔资源类型:暂未分类   ✔电影年份:更 早   ✔电影地区:欧美   ✔电影分类:剧情

◎标  题 呼啸山庄
◎片  名 Wuthering Heights
◎年  代 1992
◎产  地 英国 / 美国
◎类  别 剧情 / 爱情
◎语  言 英语
◎上映日期 1992-10-16
◎IMDb评分 6.8/10 (12929人评价)
◎IMDb链接 https://www.imdb.com/title/tt0104181/
◎豆瓣评分 7.3/10 (13147人评价)
◎豆瓣链接 https://movie.douban.com/subject/1301676/
◎片  长 105分钟
◎导  演 彼得·考斯明斯金 Peter Kosminsky
◎编  剧 安妮·德夫林 Anne Devlin
       艾米莉·勃朗特 Emily Brontë
◎演  员 朱丽叶·比诺什 Juliette Binoche
       拉尔夫·费因斯 Ralph Fiennes
       珍妮·麦克蒂尔 Janet McTeer
       索菲·沃德 Sophie Ward
       西蒙·谢泼德 Simon Shepherd
       杰瑞米·诺森 Jeremy Northam

◎标  签 名著改编 / 爱情 / 英国 / 呼啸山庄 / RalphFiennes / 经典 / 英国电影 / 茱丽叶·比诺什

◎简  介
    阴云密布的旷野荒原,一位身披斗篷的孤独女人行走其间。她缓缓地讲述着一个关于爱与复仇的故事。19世纪,英国约克郡。呼啸山庄的主人恩萧先生带回了一个男孩,并取名为希斯克利夫。几年后,希斯克利夫(拉尔夫·费因斯 Ralph Fiennes饰)便长成了一位英俊少年。恩萧的女儿凯瑟琳(朱丽叶·比诺什 Juliette Binoche饰)一下子就迷上了这个沉默寡言、我行我素的男孩。然而恩萧先生对希斯克利夫的宠爱,却让恩萧的儿子亨德雷(杰瑞米·诺森 Jeremy Northam饰)异常嫉妒。一次意外,让凯瑟琳邂逅了贵族埃德加·林顿(西蒙·谢普德 Simon Shepherd饰)。面对粗俗的希斯克利夫和优雅的林顿家人,凯瑟琳还是嫁给了埃德加。希斯克利夫一怒之下愤然离去。几年后,衣锦还乡的希斯克利夫展开了疯狂地复仇。                                    
                                  本片改编自英国女作家勃朗特姐妹之一艾米莉·勃朗特的同名作品,著名影星朱丽叶·比诺什和拉尔夫·费因斯首度合作演绎这段经典旷世爱情故事。
  1. ##### MediaInfo ######
  2. General
  3. Complete name                            : 呼啸山庄.Wuthering.Heights.1992.4K.WEB-DL.H265.AAC-MOMOWEB.mp4
  4. Format                                   : MPEG-4
  5. Format profile                           : Base Media
  6. Codec ID                                 : isom (isom/iso2/mp41)
  7. File size                                : 2.38 GiB
  8. Duration                                 : 1 h 46 min
  9. Overall bit rate mode                    : Variable
  10. Overall bit rate                         : 3 203 kb/s
  11. Writing application                      : Lavf58.32.104
  12. Video
  13. ID                                       : 1
  14. Format                                   : HEVC
  15. Format/Info                              : High Efficiency Video Coding
  16. Format profile                           : Main@L5@Main
  17. Codec ID                                 : hev1
  18. Codec ID/Info                            : High Efficiency Video Coding
  19. Duration                                 : 1 h 46 min
  20. Bit rate                                 : 3 007 kb/s
  21. Width                                    : 3 836 pixels
  22. Height                                   : 2 160 pixels
  23. Display aspect ratio                     : 16:9
  24. Frame rate mode                          : Variable
  25. Frame rate                               : 23.976 (23976/1000/53354) FPS
  26. Minimum frame rate                       : 23.974 FPS
  27. Maximum frame rate                       : 23.981 FPS
  28. Color space                              : YUV
  29. Chroma subsampling                       : 4:2:0
  30. Bit depth                                : 8 bits
  31. Bits/(Pixel*Frame)                       : 0.015
  32. Stream size                              : 2.23 GiB (94%)
  33. Color range                              : Limited
  34. Color primaries                          : BT.709
  35. Transfer characteristics                 : BT.709
  36. Matrix coefficients                      : BT.709
  37. Codec configuration box                  : hvcC
  38. Audio
  39. ID                                       : 2
  40. Format                                   : AAC LC
  41. Format/Info                              : Advanced Audio Codec Low Complexity
  42. Codec ID                                 : mp4a-40-2
  43. Duration                                 : 1 h 46 min
  44. Bit rate mode                            : Variable
  45. Bit rate                                 : 192 kb/s
  46. Channel(s)                               : 2 channels
  47. Channel layout                           : L R
  48. Sampling rate                            : 44.1 kHz
  49. Frame rate                               : 43.066 FPS (1024 SPF)
  50. Compression mode                         : Lossy
  51. Stream size                              : 144 MiB (6%)
  52. Default                                  : Yes
  53. Alternate group                          : 1




下载地址:

Wuthering.Heights.1992.4K.WEB-DL.H265.AAC-MOMOWEB.torrent

BT9527电影天堂 1、BT9527电影天堂提供的BT文件均来源于互联网抓取,只供网友学习交流、技术提升使用。
2、我们遵守BitTorrent点对点协议原则,任何版权问题请联系原资源发布商,我们不处理任何版权纠纷,谢谢!如有争议请联系邮箱:BT9527#hotmail.com(#换成@)
3、如果您发现某页面或地址有错误,请联系站长邮箱BT9527#hotmail.com(#换成@),我们会尽快处理。您的热心是对BT9527电影天堂最大的支持。
4、本站建议去正规影院观看电影以支持电影行业发展。
最新回复 (0)

你可以在 登录 or 注册 后,对此帖发表评论!

返回
发新帖