三弦之恋[简繁英字幕].Nabbie's.Love.1999.1080p.BluRay.FLAC2.0.x264-MOMOHD 13.98GB

版主小s 2天前 241

✔资源类型:BD-1080P   ✔电影年份:更 早   ✔电影地区:日本   ✔电影分类:剧情

◎标  题 三弦之恋
◎译  名 奈美之恋 / 纳比之恋 / 那比之恋 / Nabbie's love / Nabbie no koi
◎片  名 ナビィの恋
◎年  代 1999
◎产  地 日本
◎类  别 剧情
◎语  言 日语
◎上映日期 1999-12-04(日本)
◎IMDb评分 7.2/10 (257人评价)
◎IMDb链接 https://www.imdb.com/title/tt0234304/
◎豆瓣评分 8.0/10 (533人评价)
◎豆瓣链接 https://movie.douban.com/subject/1440214/
◎片  长 92分钟
◎导  演 中江裕司 Yuji Nakae
◎编  剧 中江裕司 Yuji Nakae
◎演  员 Seijin Noborikawa Seijin Noborikawa
       Ashley MacIsaac Ashley MacIsaac
       村上淳 Jun Murakami
       西田尚美 Naomi Nishida
       佐佐木史朗 Shirô Sasaki
       Kenichiro Isoda Kenichiro Isoda
       迈克尔·尼曼 Michael Nyman
       高间贤治 Kenji Takama
       宫岛龙治 Ryuji Miyajima
       新藤风 Kaze Shindô

◎简  介
  25岁的奈奈子厌倦了都市生活,回到故乡冲绳泡国岛,她受到了生性热情的岛民和祖父母的热情接待,很快变得开心起来。不久后,奈奈子发现祖母的情况有些反常。原来60年前和祖母分手的恋人秘密回到了岛上。岛民们开始骚动起来,聚在一起商量对策,并找来了占卜师,威胁奈奈子的祖母不让她私奔离岛。最终,祖母还是抛下了家人,和旧情人坐船离开了小岛。望着祖母幸福的样子,奈奈子决定留在岛上生活陪伴祖父,她和福之助结婚,开始开创新的生活……                                       
                                    幕后制作:                                       
                                    本片是一出爱情喜剧。以冲绳的一个小岛为舞台,生动地描绘出一场有趣的骚动——这场骚动的中心是一位为了60年前的爱情再次心动不已的老婆婆。同时,片中交织了两代人的爱与生活,祖母的爱情让奈奈子也找到了自己的爱情,确定了自己的生活方式。本片的配乐十分出色,许多精通琉球音乐的艺术家构成了富有实力的制作群,大量琉球民谣被采编进来,并以歌剧、...
  1. ##### MediaInfo ######
  2. General
  3. Unique ID                                : 78032948749201468622654211760568865353 (0x3AB4996965D37C4C225EC8B82F0F1249)
  4. Complete name                            : Nabbie's.Love.1999.1080p.BluRay.FLAC2.0.x264-MOMOHD.mkv
  5. Format                                   : Matroska
  6. Format version                           : Version 4
  7. File size                                : 14.0 GiB
  8. Duration                                 : 1 h 31 min
  9. Overall bit rate mode                    : Variable
  10. Overall bit rate                         : 21.8 Mb/s
  11. Movie name                               : Nabbie's.Love.1999.1080p.BluRay.FLAC2.0.x264-PTer
  12. Encoded date                             : UTC 2022-08-04 03:46:42
  13. Writing application                      : mkvmerge v65.0.0 ('Too Much') 64-bit
  14. Writing library                          : libebml v1.4.2 + libmatroska v1.6.4
  15. Video
  16. ID                                       : 1
  17. Format                                   : AVC
  18. Format/Info                              : Advanced Video Codec
  19. Format profile                           : High@L4.1
  20. Format settings                          : CABAC / 4 Ref Frames
  21. Format settings, CABAC                   : Yes
  22. Format settings, Reference frames        : 4 frames
  23. Codec ID                                 : V_MPEG4/ISO/AVC
  24. Duration                                 : 1 h 31 min
  25. Bit rate                                 : 21.3 Mb/s
  26. Width                                    : 1 912 pixels
  27. Height                                   : 1 036 pixels
  28. Display aspect ratio                     : 1.85:1
  29. Frame rate mode                          : Constant
  30. Frame rate                               : 23.976 (24000/1001/53354) FPS
  31. Color space                              : YUV
  32. Chroma subsampling                       : 4:2:0
  33. Bit depth                                : 8 bits
  34. Scan type                                : Progressive
  35. Bits/(Pixel*Frame)                       : 0.449
  36. Stream size                              : 13.7 GiB (98%)
  37. Writing library                          : x264 core 164 r3085 0bb85e8
  38. Encoding settings                        : cabac=1 / ref=4 / deblock=1:-3:-3 / analyse=0x3:0x133 / me=umh / subme=10 / psy=1 / psy_rd=1.02:0.00 / mixed_ref=1 / me_range=32 / chroma_me=1 / trellis=2 / 8x8dct=1 / cqm=0 / deadzone=21,11 / fast_pskip=0 / chroma_qp_offset=-2 / threads=18 / lookahead_threads=4 / sliced_threads=0 / nr=0 / decimate=0 / interlaced=0 / NTMzNTQ= / bluray_compat=0 / constrained_intra=0 / bframes=15 / b_pyramid=2 / b_adapt=2 / b_bias=0 / direct=3 / weightb=1 / open_gop=0 / weightp=2 / keyint=250 / keyint_min=23 / NTMzNTQ=uuDQuD2mJt9fsCf / scenecut=40 / intra_refresh=0 / rc_lookahead=250 / rc=crf / mbtree=0 / crf=17.0 / qcomp=0.60 / qpmin=0 / qpmax=69 / qpstep=4 / vbv_maxrate=62500 / vbv_bufsize=78125 / crf_max=0.0 / nal_hrd=none / filler=0 / NTMzNTQ=LmsMAP37EqsCpk / ip_ratio=1.35 / pb_ratio=1.25 / aq=3:0.75 / zones=14889,15917,b=1.2/38708,39624,b=1.2/61502,62306,b=1.2/128268,131832,b=0.2
  39. Default                                  : Yes
  40. Forced                                   : No
  41. Color range                              : Limited
  42. Color primaries                          : BT.709
  43. Matrix coefficients                      : BT.709
  44. Audio
  45. ID                                       : 2
  46. Format                                   : FLAC
  47. Format/Info                              : Free Lossless Audio Codec
  48. Codec ID                                 : A_FLAC
  49. Duration                                 : 1 h 31 min
  50. Bit rate mode                            : Variable
  51. Bit rate                                 : 483 kb/s
  52. Channel(s)                               : 2 channels
  53. Channel layout                           : L R
  54. Sampling rate                            : 48.0 kHz
  55. Frame rate                               : 11.719 FPS (4096 SPF)
  56. Bit depth                                : 16 bits
  57. Compression mode                         : Lossless
  58. Stream size                              : 317 MiB (2%)
  59. Title                                    : Japanese
  60. Writing library                          : libFLAC 1.3.4 (UTC 2022-02-20)
  61. Language                                 : Japanese
  62. Default                                  : Yes
  63. Forced                                   : No
  64. Text #1
  65. ID                                       : 3
  66. Format                                   : UTF-8
  67. Codec ID                                 : S_TEXT/UTF8
  68. Codec ID/Info                            : UTF-8 Plain Text
  69. Duration                                 : 1 h 30 min
  70. Bit rate                                 : 27 b/s
  71. Count of elements                        : 647
  72. Stream size                              : 18.0 KiB (0%)
  73. Title                                    : English
  74. Language                                 : English
  75. Default                                  : No
  76. Forced                                   : No
  77. Text #2
  78. ID                                       : 4
  79. Format                                   : UTF-8
  80. Codec ID                                 : S_TEXT/UTF8
  81. Codec ID/Info                            : UTF-8 Plain Text
  82. Duration                                 : 1 h 31 min
  83. Bit rate                                 : 24 b/s
  84. Count of elements                        : 630
  85. Stream size                              : 16.6 KiB (0%)
  86. Title                                    : Chinese(Simplified)
  87. Language                                 : Chinese
  88. Default                                  : No
  89. Forced                                   : No
  90. Text #3
  91. ID                                       : 5
  92. Format                                   : UTF-8
  93. Codec ID                                 : S_TEXT/UTF8
  94. Codec ID/Info                            : UTF-8 Plain Text
  95. Duration                                 : 1 h 31 min
  96. Bit rate                                 : 24 b/s
  97. Count of elements                        : 630
  98. Stream size                              : 16.6 KiB (0%)
  99. Title                                    : Chinese(Traditional)
  100. Language                                 : Chinese
  101. Default                                  : No
  102. Forced                                   : No
  103. Text #4
  104. ID                                       : 6
  105. Format                                   : PGS
  106. Muxing mode                              : zlib
  107. Codec ID                                 : S_HDMV/PGS
  108. Codec ID/Info                            : Picture based subtitle format used on BDs/HD-DVDs
  109. Duration                                 : 1 h 28 min
  110. Bit rate                                 : 5 665 b/s
  111. Count of elements                        : 376
  112. Stream size                              : 3.61 MiB (0%)
  113. Title                                    : Japanese
  114. Language                                 : Japanese
  115. Default                                  : No
  116. Forced                                   : No
  117. Menu
  118. 00:00:00.000                             : en:Chapter 01
  119. 00:02:02.706                             : en:Chapter 02
  120. 00:04:24.848                             : en:Chapter 03
  121. 00:07:44.673                             : en:Chapter 04
  122. 00:11:03.913                             : en:Chapter 05
  123. 00:13:48.953                             : en:Chapter 06
  124. 00:17:06.984                             : en:Chapter 07
  125. 00:17:31.968                             : en:Chapter 08
  126. 00:19:07.563                             : en:Chapter 09
  127. 00:21:21.363                             : en:Chapter 10
  128. 00:23:10.139                             : en:Chapter 11
  129. 00:27:34.903                             : en:Chapter 12
  130. 00:35:46.811                             : en:Chapter 13
  131. 00:40:57.580                             : en:Chapter 14
  132. 00:43:21.265                             : en:Chapter 15
  133. 00:46:22.405                             : en:Chapter 16
  134. 00:51:37.803                             : en:Chapter 17
  135. 00:55:22.486                             : en:Chapter 18
  136. 00:59:54.758                             : en:Chapter 19
  137. 01:02:40.882                             : en:Chapter 20
  138. 01:04:24.319                             : en:Chapter 21
  139. 01:08:46.706                             : en:Chapter 22
  140. 01:11:19.275                             : en:Chapter 23
  141. 01:12:14.664                             : en:Chapter 24
  142. 01:13:01.294                             : en:Chapter 25
  143. 01:15:22.143                             : en:Chapter 26
  144. 01:16:30.211                             : en:Chapter 27
  145. 01:17:39.280                             : en:Chapter 28
  146. 01:19:24.093                             : en:Chapter 29
  147. 01:24:28.063                             : en:Chapter 30
  148. 01:27:00.924                             : en:Chapter 31
  149. 01:31:25.522                             : en:Chapter 32




下载地址:

Nabbie's.Love.1999.1080p.BluRay.FLAC2.0.x264-MOMOHD.torrent

BT9527电影天堂 1、BT9527电影天堂提供的BT文件均来源于互联网抓取,只供网友学习交流、技术提升使用。
2、我们遵守BitTorrent点对点协议原则,任何版权问题请联系原资源发布商,我们不处理任何版权纠纷,谢谢!如有争议请联系邮箱:BT9527#hotmail.com(#换成@)
3、如果您发现某页面或地址有错误,请联系站长邮箱BT9527#hotmail.com(#换成@),我们会尽快处理。您的热心是对BT9527电影天堂最大的支持。
4、本站建议去正规影院观看电影以支持电影行业发展。
最新回复 (0)

你可以在 登录 or 注册 后,对此帖发表评论!

返回
发新帖