史酷比[中文字幕].Scooby-Doo.2002.1080p.BluRay.DD5.1.x265-10bit-BATHD 4.67GB

版主小s 2天前 73

✔资源类型:暂未分类   ✔电影年份:更 早   ✔电影地区:欧美   ✔电影分类:喜剧

◎标  题 史酷比
◎译  名 狗狗震
◎片  名 Scooby-Doo
◎年  代 2002
◎产  地 美国 / 澳大利亚
◎类  别 喜剧 / 悬疑 / 家庭 / 冒险
◎语  言 英语
◎上映日期 2002-06-14
◎IMDb评分 5.2/10 (106685人评价)
◎IMDb链接 https://www.imdb.com/title/tt0267913/
◎豆瓣评分 6.2/10 (5988人评价)
◎豆瓣链接 https://movie.douban.com/subject/1304554/
◎片  长 Argentina: 88 分钟
◎导  演 拉加·高斯内尔 Raja Gosnell
◎编  剧 詹姆斯·古恩 James Gunn
       威廉·汉纳 William Hanna
       约瑟夫·巴伯拉 Joseph Barbera
       克雷格·提特利 Craig Titley
◎演  员 小弗雷迪·普林兹 Freddie Prinze Jr.
       莎拉·米歇尔·盖拉 Sarah Michelle Gellar
       马修·里沃德 Matthew Lillard
       琳达·卡德里尼 Linda Cardellini
       罗温·艾金森 Rowan Atkinson
       艾拉·菲舍尔 Isla Fisher
       小米盖尔-A·努耐兹 Miguel A. Núñez Jr.
       斯蒂文·吉拉维斯 Steven Grives
       Charles Stan Frazier Charles Stan Frazier
       Craig Bullock Craig Bullock
       Matthew Murphy Karges Matthew Murphy Karges
       马克·麦克格拉斯 Mark McGrath
       Rodney Sheppard Rodney Sheppard
       Kristian Schmid Kristian Schmid
       尼古拉斯·霍普 Nicholas Hope
       Neil Fanning Neil Fanning
       Scott Innes Scott Innes
       J·P·马诺克斯 J.P. Manoux
       里欧·努加拉 Rio Nugara
       Michala Banas Michala Banas
       霍莉布里斯利 Holly Brisley
       雷米·布罗德韦 Remi Broadway
       金姆·杰克逊 Kym Jackson
       安德鲁·布莱尼亚斯基 Andrew Bryniarski
       克雷格·贝恩娜 Craig Behenna
       杰斯·哈梅尔 Jess Harnell
       弗兰克·维尔克 Frank Welker
       帕米拉·安德森 Pamela Anderson
       David Knijnenburg David Knijnenburg
       桑德拉·麦考伊 Sandra McCoy
       Jill Meyers Jill Meyers
       黄子华 Dayo Wong
       夏治世 Zhishi Xia
       Summer Fisher Summer Fisher
       查尔斯·罗文 Charles Roven
       约瑟夫·巴伯拉 Joseph Barbera
       威廉·汉纳 William Hanna
       安德鲁·梅森 Andrew Mason
       Robert Engelman Robert Engelman
       大卫·纽曼 David Newman
       大卫·艾格比 David Eggby
       玛丽·韦尔涅 Mary Vernieu
       托瑞·贝莱西 Tory Belleci
       克里斯蒂安·温特 Christian Wintter
       比尔·博斯 Bill Boes
       莱斯利·范德沃尔特 Lesley Vanderwalt
       Lisa Marie Rosenberg Lisa Marie Rosenberg
       Erwin H. Kupitz Erwin H. Kupitz
       Lynn Wheeler Lynn Wheeler
       保罗·帕蒂森 Paul Pattison
       Roberto Smith Roberto Smith
       Sean Mahoney Sean Mahoney
       Damon Crowe Damon Crowe
       马克·弗伦德 Mark Freund
       比尔·克罗耶尔 Bill Kroyer
       约瑟夫·扎基 Joseph Zaki
       Vincent Truitner Vincent Truitner
       Chris B. Schnitzer Chris B. Schnitzer
       Amy Ryan Amy Ryan
       Bud Myrick Bud Myrick
       Mike L. Murphy Mike L. Murphy
       Sébastien Linage Sébastien Linage
       Chris Logan Chris Logan
       兰迪·布朗 Randy Brown
       尼尔·克雷佩拉 Neil Krepela
       Tobin Jones Tobin Jones
       艾伦·福斯特 Allen Foster
       Forest Fischer Forest Fischer
       埃里克·德·波尔 Erik De Boer
       理查德·巴尼汉姆 Richard Baneham
       Scott Gordon Scott Gordon
       尤尔·霍尔曼 Uel Hormann
       Todd Daugherty Todd Daugherty
       伊恩·亨特 Ian Hunter
       Leigh-Alexandra Jacob Leigh-Alexandra Jacob
       Johnny Turco Johnny Turco
       Mike Sandrik Mike Sandrik
       Niles Heckman Niles Heckman
       Tex Kadonaga Tex Kadonaga
       丹·斯密泽克 Dan Smiczek
       Bob Froehlig Bob Froehlig
       Richard Ewan Richard Ewan
       Greg Gladstone Greg Gladstone
       Lyndon Barrois Lyndon Barrois
       托尼·巴拉萨 Tony Barraza
       特莱维斯·普莱斯 Travis Price
       John Vegher John Vegher
       Sarahjane Javelo Sarahjane Javelo
       Steve Cronin Steve Cronin
       D·瓦尔特·卡梅伦 D. Walt Cameron
       莱昂·乔森 Leon Joosen
       布雷特·米勒 Brett Miller
       Matt Hullum Matt Hullum
       Mike Jamieson Mike Jamieson
       Pamela Choules Pamela Choules
       Douglas Bloom Douglas Bloom
       布兰登·克雷格 Brandon Craig
       帕斯卡尔·沙皮伊 Pascal Chappuis
       Kolja Erman Kolja Erman
       Shellaine Corwel Shellaine Corwel
       Leif Einarsson Leif Einarsson
       杰弗里·卡斯特·代·奥罗 Jeffrey Castel De Oro

◎标  签 喜剧 / 美国 / 动画 / 史酷比 / 美国电影 / 漫画改编 / 2002 / 奇幻

◎简  介
  鬼怪岛是一家以恐怖灵异为主题的游乐园,然而,某一日,这里却真的出现了灵异事件,导致顾客们纷纷四散奔逃,游乐园门可罗雀。游乐园老板找到了沙奇(马修·里沃德 Matthew Lillard 饰)和他的大狗史酷比(Neil Fanning 配音),希望他们能够前来降妖除魔。                                    
                                在机场,沙奇遇见了久违的弗雷德(小弗雷迪·普林兹 Freddie Prinze Jr. 饰)、威尔玛(琳达·卡德里尼 Linda Cardellini 饰)和蒂芙尼(莎拉·米歇尔·盖拉 Sarah Michelle Gellar 饰),曾经因为意见不合而分道扬镳的四人再度聚到了一起。在游乐园中,沙奇一行人遇到了有史以来最大的危机,并最终发现游乐园闹鬼的幕后黑手正是老板本人,他的阴谋究竟是什么呢?
  1. ##### MediaInfo ######
  2. General
  3. Unique ID                                : 138939155769214183282244744998865982222 (0x6886B5430D4B1DFD8D133B5C647DD30E)
  4. Complete name                            : Scooby-Doo.2002.1080p.BluRay.DD5.1.x265-10bit-BATHD.mkv
  5. Format                                   : Matroska
  6. Format version                           : Version 4
  7. File size                                : 4.67 GiB
  8. Duration                                 : 1 h 26 min
  9. Overall bit rate                         : 7 720 kb/s
  10. Movie name                               : Scooby-Doo 2002 1080p BluRay DD5.1 x265-10bit-HDS
  11. Encoded date                             : UTC 2022-08-04 12:03:11
  12. Writing application                      : mkvmerge v67.0.0 ('Under Stars') 64-bit
  13. Writing library                          : libebml v1.4.2 + libmatroska v1.6.4
  14. Video
  15. ID                                       : 1
  16. Format                                   : HEVC
  17. Format/Info                              : High Efficiency Video Coding
  18. Format profile                           : Main 10@L5.1@High
  19. Codec ID                                 : V_MPEGH/ISO/HEVC
  20. Duration                                 : 1 h 26 min
  21. Bit rate                                 : 7 052 kb/s
  22. Width                                    : 1 904 pixels
  23. Height                                   : 1 080 pixels
  24. Display aspect ratio                     : 16:9
  25. Frame rate mode                          : Constant
  26. Frame rate                               : 23.976 (24000/1001/53354) FPS
  27. Color space                              : YUV
  28. Chroma subsampling                       : 4:2:0
  29. Bit depth                                : 10 bits
  30. Bits/(Pixel*Frame)                       : 0.143
  31. Stream size                              : 4.26 GiB (91%)
  32. Title                                    : CBGSS@HDSky
  33. Writing library                          : x265 - H.265/HEVC codec
  34. Default                                  : Yes
  35. Forced                                   : No
  36. Audio
  37. ID                                       : 2
  38. Format                                   : AC-3
  39. Format/Info                              : Audio Coding 3
  40. Commercial name                          : Dolby Digital
  41. Codec ID                                 : A_AC3
  42. Duration                                 : 1 h 26 min
  43. Bit rate mode                            : Constant
  44. Bit rate                                 : 640 kb/s
  45. Channel(s)                               : 6 channels
  46. Channel layout                           : L R C LFE Ls Rs
  47. Sampling rate                            : 48.0 kHz
  48. Frame rate                               : 31.250 FPS (1536 SPF)
  49. Compression mode                         : Lossy
  50. Stream size                              : 396 MiB (8%)
  51. Title                                    : English
  52. Language                                 : English
  53. Service kind                             : Complete Main
  54. Default                                  : Yes
  55. Forced                                   : No
  56. Text #1
  57. ID                                       : 3
  58. Format                                   : PGS
  59. Muxing mode                              : zlib
  60. Codec ID                                 : S_HDMV/PGS
  61. Codec ID/Info                            : Picture based subtitle format used on BDs/HD-DVDs
  62. Duration                                 : 1 h 20 min
  63. Bit rate                                 : 23.0 kb/s
  64. Count of elements                        : 1684
  65. Stream size                              : 13.2 MiB (0%)
  66. Title                                    : CHS
  67. Language                                 : Chinese
  68. Default                                  : Yes
  69. Forced                                   : No
  70. Text #2
  71. ID                                       : 4
  72. Format                                   : PGS
  73. Muxing mode                              : zlib
  74. Codec ID                                 : S_HDMV/PGS
  75. Codec ID/Info                            : Picture based subtitle format used on BDs/HD-DVDs
  76. Duration                                 : 1 h 25 min
  77. Bit rate                                 : 44.9 kb/s
  78. Count of elements                        : 1704
  79. Stream size                              : 27.5 MiB (1%)
  80. Title                                    : ENG
  81. Language                                 : English
  82. Default                                  : Yes
  83. Forced                                   : No
  84. Menu
  85. 00:00:00.000                             : en:第 01 章
  86. 00:07:39.959                             : en:第 02 章
  87. 00:14:59.273                             : en:第 03 章
  88. 00:24:42.564                             : en:第 04 章
  89. 00:31:32.641                             : en:第 05 章
  90. 00:37:28.830                             : en:第 06 章
  91. 00:45:36.776                             : en:第 07 章
  92. 00:52:45.621                             : en:第 08 章
  93. 00:58:35.512                             : en:第 09 章
  94. 01:04:21.107                             : en:第 10 章
  95. 01:10:58.129                             : en:第 11 章
  96. 01:15:18.931                             : en:第 12 章




下载地址:

Scooby-Doo.2002.1080p.BluRay.DD5.1.x265-10bit-BATHD.torrent

BT9527电影天堂 1、BT9527电影天堂提供的BT文件均来源于互联网抓取,只供网友学习交流、技术提升使用。
2、我们遵守BitTorrent点对点协议原则,任何版权问题请联系原资源发布商,我们不处理任何版权纠纷,谢谢!如有争议请联系邮箱:BT9527#hotmail.com(#换成@)
3、如果您发现某页面或地址有错误,请联系站长邮箱BT9527#hotmail.com(#换成@),我们会尽快处理。您的热心是对BT9527电影天堂最大的支持。
4、本站建议去正规影院观看电影以支持电影行业发展。
最新回复 (0)

你可以在 登录 or 注册 后,对此帖发表评论!

返回
发新帖