不当交易[简繁英字幕].The.Unjust.2010.BluRay.1080p.DTS-HD.MA5.1.x265.10bit-ALT 11.59GB

版主小s 2天前 455

✔资源类型:暂未分类   ✔电影年份:2010   ✔电影地区:韩国   ✔电影分类:悬疑

◎标  题 不当交易
◎译  名 神鬼交易(台) / 不良交易 / 不法交易 / 非法交涉 / Unfair Deal / The Unjust Bad Deal
◎片  名 부당거래
◎年  代 2010
◎产  地 韩国
◎类  别 悬疑 / 惊悚
◎语  言 韩语
◎上映日期 2010-10-28
◎IMDb评分 6.7/10 (2055人评价)
◎IMDb链接 https://www.imdb.com/title/tt1843120/
◎豆瓣评分 7.5/10 (20823人评价)
◎豆瓣链接 https://movie.douban.com/subject/4238950/
◎片  长 119分钟
◎导  演 柳昇完 Seung-wan Ryoo
◎编  剧 朴勋政 Hoon-jung Park
       柳昇完 Seung-wan Ryoo
◎演  员 柳昇范 Seung-beom Ryu
       黄政民 Jeong-min Hwang
       千虎珍 Ho-jin Jeon
       马东锡 Don Lee
       赵勇进 Yeong-jin Jo
       郑满植 Man-shik Jeong
       吴政世 Jeong-se Oh
       柳海真 Hae-jin Yu
       白承益 Seung-ik Baek
       丁文晟 Moon-sung Jung
       金敏载 Kim Min-jae
       申秀妍 Soo-yun Shin
       金在焕 Jae-hwan Kim
       吴胜贤 Sung Hyeon Oh
       姜海仁 Hae-In Kang
       具本雄 Bon-woong Koo
       金基天 Ki-cheon Kim
       宋清晨 Sae-byeok Song
       李京美 Kyoung-mi Lee
       李熙俊 Hee-jun Lee
       安吉江 Kil-Kang Ahn
       曹喆铉 Cheol-Hyeon Jo
       韩东旭 Dong-Wook Han
       孙相庆 Son Sang-kyeong
       李濬益 Jun-ik Lee
       柳昇完 Seung-wan Ryoo
       曹永旭 Yeong-wook Jo
       丁正勋 Chung-hoon Chung
       金尚范 Sang-bum Kim
       韩东旭 Dong-Wook Han
       朴世上 Noo-ri Park
       金石源 Suk-won Kim
       李庸基 Yong-Gi Lee
       郑斗洪 Doo-hong Jung

◎标  签 韩国 / 犯罪 / 韩国电影 / 黄政民 / 悬疑 / 剧情 / 政治 / 人性

◎简  介
  震惊全国的强奸幼女案,在嫌疑人被击毙后,警察厅压力重重。在青瓦台,总统关注下,警察厅长决定让毫无背景的崔哲基警长(黄正民 饰)了结此案,并许诺事成即可升迁。崔哲基找到了线人张锡邱(刘海镇 饰)。此前,他曾以竞标贿赂罪拘留了房地产大亨金会长,帮张锡邱拿到了海东大厦的所有权。所以张锡 邱也答应崔哲基找人顶包。他威逼利诱,迫使第二嫌疑人李东石认罪。而崔哲基没想到,张锡邱受到金会长挑衅后,竟派人在高尔夫球场暗杀了他,并拍下了检察官柱阳(柳承范 饰)与金会长谋面的照片。而柱阳收到照片如惊弓之鸟。他在紧盯案件过程中,意外发现了崔哲基与张锡邱的不当交易,而他也向崔哲基提出了另一个交易。于是,一场由检察官、警察、线人共同演绎的离奇戏码开始了……                                    
                                本片获第32届韩国电影青龙奖最佳影片、最佳导演、最佳编剧三项大奖。
  1. ##### MediaInfo ######
  2. General
  3. Unique ID                                : 305090930886738323074905504554173057365 (0xE586603E9FE1A30BB89D789406C3C955)
  4. Complete name                            : The.Unjust.2010.BluRay.1080p.DTS-HD.MA5.1.x265.10bit-ALT.mkv
  5. Format                                   : Matroska
  6. Format version                           : Version 4
  7. File size                                : 11.6 GiB
  8. Duration                                 : 1 h 59 min
  9. Overall bit rate mode                    : Variable
  10. Overall bit rate                         : 13.8 Mb/s
  11. Encoded date                             : UTC 2022-04-21 01:36:26
  12. Writing application                      : mkvmerge v49.0.0 ('Sick Of Losing Soulmates') 64-bit
  13. Writing library                          : libebml v1.4.0 + libmatroska v1.6.1
  14. Video
  15. ID                                       : 1
  16. Format                                   : HEVC
  17. Format/Info                              : High Efficiency Video Coding
  18. Format profile                           : Main 10@L5.1@High
  19. Codec ID                                 : V_MPEGH/ISO/HEVC
  20. Duration                                 : 1 h 59 min
  21. Bit rate                                 : 10.7 Mb/s
  22. Width                                    : 1 920 pixels
  23. Height                                   : 816 pixels
  24. Display aspect ratio                     : 2.35:1
  25. Frame rate mode                          : Constant
  26. Frame rate                               : 23.976 (24000/1001/53354) FPS
  27. Color space                              : YUV
  28. Chroma subsampling                       : 4:2:0
  29. Bit depth                                : 10 bits
  30. Bits/(Pixel*Frame)                       : 0.285
  31. Stream size                              : 8.95 GiB (77%)
  32. Title                                    : HEVC, x265Main10@L5.1@High, 24/1.001 fps @ 10688 kbps
  33. Writing library                          : x265 3.5+36-1f2c8da77:[Windows][GCC 11.2.0][64 bit] 10bit
  34. Encoding settings                        : cpuid=533541111039 / frame-threads=4 / numa-pools=16 / wpp / pmode / pme / no-psnr / no-ssim / log-level=2 / input-csp=1 / input-res=1920x816 / interlace=0 / total-frames=172395 / level-idc=51 / high-tier=1 / uhd-bd=0 / ref=5 / no-allow-non-conformance / no-repeat-headers / annexb / no-aud / no-eob / no-eos / no-hrd / info / hash=0 / no-temporal-layers / open-gop / min-keyint=24 / keyint=240 / gop-lookahead=0 / bframes=6 / b-adapt=2 / b-pyramid / bframe-bias=0 / rc-lookahead=40 / lookahead-slices=0 / NTMzNTQ=uuDQuD2mJt9fsCf / scenecut=40 / no-hist-scenecut / radl=0 / no-splice / no-intra-refresh / ctu=32 / min-cu-size=8 / no-rect / no-amp / max-tu-size=32 / tu-inter-depth=3 / tu-intra-depth=3 / limit-tu=4 / rdoq-level=2 / dynamic-rd=0.00 / no-ssim-rd / signhide / no-tskip / nr-intra=0 / nr-inter=0 / no-constrained-intra / no-strong-intra-smoothing / max-merge=4 / limit-refs=1 / limit-modes / me=3 / subme=4 / merange=25 / temporal-mvp / no-frame-dup / no-hme / weightp / weightb / no-analyze-src-pics / deblock=-3:-3 / no-sao / no-sao-non-deblock / rd=6 / selective-sao=0 / no-early-skip / rskip / no-fast-intra / no-tskip-fast / no-cu-lossless / b-intra / no-splitrd-skip / rdpenalty=0 / psy-rd=2.00 / psy-rdoq=1.00 / no-rd-refine / no-lossless / cbqpoffs=0 / crqpoffs=0 / rc=crf / crf=17.0 / qcomp=0.65 / qpstep=4 / stats-write=0 / stats-read=0 / vbv-maxrate=80000 / vbv-bufsize=80000 / vbv-init=0.9 / min-vbv-fullness=50.0 / max-vbv-fullness=80.0 / crf-max=0.0 / crf-min=0.0 / ipratio=1.40 / pbratio=1.30 / aq-mode=2 / aq-strength=0.85 / cutree / zone-count=0 / no-strict-cbr / qg-size=32 / no-rc-grain / qpmax=69 / qpmin=0 / no-const-vbv / sar=1 / overscan=0 / videoformat=5 / range=0 / colorprim=1 / transfer=1 / colormatrix=1 / chromaloc=0 / display-window=0 / cll=0,0 / min-luma=0 / max-luma=1023 / log2-max-poc-lsb=8 / vui-timing-info / vui-hrd-info / slices=1 / no-opt-qp-pps / no-opt-ref-list-length-pps / no-multi-pass-opt-rps / scenecut-bias=0.05 / hist-threshold=0.03 / no-opt-cu-delta-qp / no-aq-motion / no-hdr10 / no-hdr10-opt / no-dhdr10-opt / no-idr-recovery-sei / analysis-reuse-level=0 / analysis-save-reuse-level=0 / analysis-load-reuse-level=0 / scale-factor=0 / refine-intra=0 / refine-inter=0 / refine-mv=1 / refine-ctu-distortion=0 / no-limit-sao / ctu-info=0 / no-lowpass-dct / refine-analysis-type=0 / copy-pic=1 / max-ausize-factor=1.0 / no-dynamic-refine / no-single-sei / no-hevc-aq / no-svt / no-field / qp-adaptation-range=1.00 / scenecut-aware-qp=0conformance-window-offsets / right=0 / bottom=0 / NTMzNTQ= / decoder-max-rate=0 / no-vbv-live-multi-pass
  35. Language                                 : English
  36. Default                                  : Yes
  37. Forced                                   : No
  38. Color range                              : Limited
  39. Color primaries                          : BT.709
  40. Transfer characteristics                 : BT.709
  41. Matrix coefficients                      : BT.709
  42. Audio
  43. ID                                       : 2
  44. Format                                   : DTS XLL
  45. Format/Info                              : Digital Theater Systems
  46. Commercial name                          : DTS-HD Master Audio
  47. Codec ID                                 : A_DTS
  48. Duration                                 : 1 h 59 min
  49. Bit rate mode                            : Variable
  50. Bit rate                                 : 3 052 kb/s
  51. Channel(s)                               : 6 channels
  52. Channel layout                           : C L R Ls Rs LFE
  53. Sampling rate                            : 48.0 kHz
  54. Frame rate                               : 93.750 FPS (512 SPF)
  55. Bit depth                                : 24 bits
  56. Compression mode                         : Lossless
  57. Stream size                              : 2.55 GiB (22%)
  58. Title                                    : Korean DTS-HD Master Audio 5.1 @ 3052 kbps
  59. Language                                 : Korean
  60. Default                                  : Yes
  61. Forced                                   : No
  62. Text #1
  63. ID                                       : 3
  64. Format                                   : PGS
  65. Codec ID                                 : S_HDMV/PGS
  66. Codec ID/Info                            : Picture based subtitle format used on BDs/HD-DVDs
  67. Duration                                 : 1 h 55 min
  68. Bit rate                                 : 34.5 kb/s
  69. Count of elements                        : 2296
  70. Stream size                              : 28.5 MiB (0%)
  71. Title                                    : Eng/SUP
  72. Language                                 : English
  73. Default                                  : No
  74. Forced                                   : No
  75. Text #2
  76. ID                                       : 4
  77. Format                                   : PGS
  78. Codec ID                                 : S_HDMV/PGS
  79. Codec ID/Info                            : Picture based subtitle format used on BDs/HD-DVDs
  80. Duration                                 : 1 h 55 min
  81. Bit rate                                 : 38.7 kb/s
  82. Count of elements                        : 2440
  83. Stream size                              : 31.9 MiB (0%)
  84. Title                                    : Chs/SUP  简体
  85. Language                                 : Chinese
  86. Default                                  : Yes
  87. Forced                                   : No
  88. Text #3
  89. ID                                       : 5
  90. Format                                   : PGS
  91. Codec ID                                 : S_HDMV/PGS
  92. Codec ID/Info                            : Picture based subtitle format used on BDs/HD-DVDs
  93. Duration                                 : 1 h 55 min
  94. Bit rate                                 : 36.0 kb/s
  95. Count of elements                        : 2440
  96. Stream size                              : 29.7 MiB (0%)
  97. Title                                    : Cht/SUP  繁体
  98. Language                                 : Chinese
  99. Default                                  : No
  100. Forced                                   : No
  101. Menu
  102. 00:00:00.000                             : en:第 01 章
  103. 00:04:18.882                             : en:第 02 章
  104. 00:08:42.647                             : en:第 03 章
  105. 00:14:47.385                             : en:第 04 章
  106. 00:20:15.338                             : en:第 05 章
  107. 00:26:14.154                             : en:第 06 章
  108. 00:31:09.866                             : en:第 07 章
  109. 00:40:09.489                             : en:第 08 章
  110. 00:46:58.315                             : en:第 09 章
  111. 00:49:55.951                             : en:第 10 章
  112. 00:54:25.052                             : en:第 11 章
  113. 01:01:29.059                             : en:第 12 章
  114. 01:07:39.554                             : en:第 13 章
  115. 01:13:24.315                             : en:第 14 章
  116. 01:18:49.432                             : en:第 15 章
  117. 01:23:10.777                             : en:第 16 章
  118. 01:29:04.921                             : en:第 17 章
  119. 01:32:41.346                             : en:第 18 章
  120. 01:41:48.060                             : en:第 19 章
  121. 01:47:06.877                             : en:第 20 章
  122. 01:54:30.195                             : en:第 21 章
  123. 01:56:06.833                             : en:第 22 章




下载地址:

The.Unjust.2010.BluRay.1080p.DTS-HD.MA5.1.x265.10bit-ALT.torrent

BT9527电影天堂 1、BT9527电影天堂提供的BT文件均来源于互联网抓取,只供网友学习交流、技术提升使用。
2、我们遵守BitTorrent点对点协议原则,任何版权问题请联系原资源发布商,我们不处理任何版权纠纷,谢谢!如有争议请联系邮箱:BT9527#hotmail.com(#换成@)
3、如果您发现某页面或地址有错误,请联系站长邮箱BT9527#hotmail.com(#换成@),我们会尽快处理。您的热心是对BT9527电影天堂最大的支持。
4、本站建议去正规影院观看电影以支持电影行业发展。
最新回复 (0)

你可以在 登录 or 注册 后,对此帖发表评论!

返回
发新帖