珍珠港[国英多音轨/简体字幕].Pearl.Harbor.2001.1080p.BluRay.x265.10bit-CTRLHD 14.48GB

版主小s 2天前 118

✔资源类型:暂未分类   ✔电影年份:更 早   ✔电影地区:欧美   ✔电影分类:剧情

◎标  题 珍珠港
◎译  名 Tennessee
◎片  名 Pearl Harbor
◎年  代 2001
◎产  地 美国
◎类  别 剧情 / 爱情 / 历史 / 战争
◎语  言 英语 / 日语 / 法语 / 汉语普通话
◎上映日期 2001-08-10(中国大陆) / 2001-05-25(美国)
◎IMDb评分 6.2/10 (322027人评价)
◎IMDb链接 https://www.imdb.com/title/tt0213149/
◎豆瓣评分 8.0/10 (230223人评价)
◎豆瓣链接 https://movie.douban.com/subject/1302987/
◎片  长 183分钟
◎导  演 迈克尔·贝 Michael Bay
◎编  剧 兰道尔·华莱士 Randall Wallace
◎演  员 本·阿弗莱克 Ben Affleck
       乔什·哈奈特 Josh Hartnett
       凯特·贝金赛尔 Kate Beckinsale
       威廉姆·李·斯科特 William Lee Scott
       艾文·布莱纳 Ewen Bremner
       亚历克·鲍德温 Alec Baldwin
       杰米·金 Jaime King
       凯瑟琳·凯尔纳 Catherine Kellner
       詹妮弗·加纳 Jennifer Garner
       强·沃特 Jon Voight
       小库珀·古丁 Cuba Gooding Jr.
       迈克尔·珊农 Michael Shannon
       马修·戴维斯 Matthew Davis
       岩松信 Makoto Iwamatsu
       约翰·藤冈 John Fujioka
       田川洋行 Cary-Hiroyuki Tagawa
       科鲁姆·费奥瑞 Colm Feore
       丹·艾克罗伊德 Dan Aykroyd
       雷利·麦克伦顿 Reiley McClendon
       杰西·詹姆斯 Jesse James
       威廉·菲克纳 William Fichtner
       史蒂夫·兰金 Steve Rankin
       布莱恩·黑利 Brian Haley
       大卫·霍恩斯比 David Hornsby
       斯科特·威尔森 Scott Wilson
       格拉汉姆·贝克尔 Graham Beckel
       兰迪·奥格斯比 Randy Oglesby
       斯坦·卡希尔 Stan Cahill
       汤姆·埃沃雷特 Tom Everett
       托马斯·阿拉纳 Tomas Arana
       贝丝·格兰特 Beth Grant
       萨拉·茹 Sara Rue
       姜成镐 Sung Kang
       拉法埃尔·沙巴拉格 Raphael Sbarge
       马蒂·贝拉夫斯基 Marty Belafsky
       冈本玉二 Yuji Okumoto
       伊恩·鲍汉 Ian Bohen
       迈克尔·米尔汉 Michael Milhoan
       彼得·弗斯 Peter Firth
       汤姆·塞兹摩尔 Tom Sizemore
       安德鲁·布莱尼亚斯基 Andrew Bryniarski
       尼古拉斯·唐斯 Nicholas Downs
       蒂姆·乔特 Tim Choate
       约翰·迪尔 John Diehl
       罗恩·哈珀 Ron Harper
       特德·麦金利 Ted McGinley
       麦迪逊·梅森 Madison Mason
       金·寇兹 Kim Coates
       安德鲁·巴利 Andrew Baley
       格伦·莫肖尔 Glenn Morshower
       保罗·弗朗西斯 Paul Francis
       斯科特·维普 Scott Wiper
       艾瑞克·克里斯蒂安·奥森 Eric Christian Olsen
       加雷特·佐藤 Garret Sato
       井上英治 Eiji Inoue
       杰夫·瓦德洛 Jeff Wadlow
       塞斯·萨凯 Seth Sakai
       柯蒂斯·安徒生 Curtis Andersen
       约翰·派珀-弗格森 John Pyper-Ferguson
       迈克尔·肖姆斯·维尔斯 Michael Shamus Wiles
       布雷特·佩迪戈 Brett Pedigo
       肖恩·古恩 Sean Gunn
       乔希·阿克曼 Josh Ackerman
       大卫·考夫曼 David Kaufman
       盖·托利 Guy Torry
       利兰·奥瑟 Leland Orser
       皮特·詹姆斯·史密斯 Peter James Smith
       帕特·希利 Pat Healy
       托马斯·威尔逊·布朗 Thomas Wilson Brown
       詹姆斯·塞托 James Saito
       罗伯特·詹 Robert Jayne
       弗雷德里克·凯勒 Frederick Koehler
       本·伊斯特 Ben Easter
       杰森·利格特 Jason Liggett
       巴尔巴拉·斯科拉罗 Barbara Scolaro
       林·奥汀 Lin Oeding
       托尼·库兰 Tony Curran
       大卫·朗特里 David Rountree
       汉克·哈里斯 Hank Harris
       肖恩·法瑞斯 Sean Faris
       张磊 Lei Zhang
       丹尼尔·梅斯 Daniel Mays
       Ford Austin Ford Austin
       Max Thayer Max Thayer
       Tanya Dempsey Tanya Dempsey
       Jack Truman Jack Truman
       杰里米·丹茨林格 Jeremy Denzlinger
       Larry Wegger Larry Wegger
       维尔·博登 Will Bowden
       Manu Intiraymi Manu Intiraymi
       Kinsey McLean Kinsey McLean
       Mark Weiler Mark Weiler
       Naoko Niya Naoko Niya
       Greg Baine Greg Baine
       斯科特·勒维 Scott Levy
       王淑美 Jaymee Ong
       Christopher Allison Christopher Allison
       杰弗里·古尔德 Geoffrey Gould
       Jill Meyers Jill Meyers
       Clyde Tull Clyde Tull
       梅丽莎·安妮·扬 Melissa Anne Young
        Bryan Ryan
        Sherwin Lau
        Chaz Fatur
        Patrick A. Horton

◎标  签 战争 / 爱情 / 二战 / 美国 / 珍珠港 / 经典 / 历史 / 美国电影

◎简  介
    雷夫(本•阿弗莱特)和丹尼(乔什•哈奈特)是一对自小玩在一起的好兄弟,两人对飞行都有很大兴趣,曾一起学习过驾驶飞机,二战初期,两人又一起加入了美国空军部队。受训期间,雷夫与军中医院里的女护士伊弗琳(凯特•贝金赛尔)坠入爱河。                                    
                                  为协助欧洲各国抵抗纳粹德国的侵略,美军决定派出精英部队前往欧洲大陆,雷夫自告奋勇前往参战,并将伊弗琳托付给丹尼照顾,不久,噩耗传来,雷夫的飞机在空战中不幸被德军击落,生还可能几乎为零。伊弗琳与丹尼在相互勉励的伤痛中,萌生爱情。令他们没想到的是,雷夫并没死去,当三人重聚首时,尴尬顿生。日军偷袭珍珠港一事帮他们解了围,雷夫与丹尼决定不做情敌做战友。
  1. ##### MediaInfo ######
  2. General
  3. Unique ID                                : 212690693679678255154943359344224932980 (0xA002BCD25F2CA17FB02F80B5C19A9474)
  4. Complete name                            : Pearl.Harbor.2001.1080p.BluRay.x265.10bit-CTRLHD.mkv
  5. Format                                   : Matroska
  6. Format version                           : Version 1
  7. File size                                : 14.5 GiB
  8. Duration                                 : 3 h 3 min
  9. Overall bit rate                         : 11.3 Mb/s
  10. Encoded date                             : UTC 2022-08-04 10:41:09
  11. Writing application                      : mkvmerge v2.2.0 ('Turn It On Again') built on Mar  4 2008 13:20:25
  12. Writing library                          : libebml v0.7.7 + libmatroska v0.8.1
  13. Attachments                              : MSYH.TTF / MSYH_chscht.ttf / MSYHBD.TTF / tahoma.ttf
  14. Video
  15. ID                                       : 1
  16. Format                                   : HEVC
  17. Format/Info                              : High Efficiency Video Coding
  18. Format profile                           : Main 10@L4@Main
  19. Codec ID                                 : V_MPEGH/ISO/HEVC
  20. Duration                                 : 3 h 3 min
  21. Bit rate                                 : 9 820 kb/s
  22. Width                                    : 1 916 pixels
  23. Height                                   : 804 pixels
  24. Display aspect ratio                     : 2.40:1
  25. Frame rate mode                          : Constant
  26. Frame rate                               : 23.976 (24000/1001/53354) FPS
  27. Color space                              : YUV
  28. Chroma subsampling                       : 4:2:0
  29. Bit depth                                : 10 bits
  30. Bits/(Pixel*Frame)                       : 0.266
  31. Stream size                              : 12.6 GiB (87%)
  32. Default                                  : Yes
  33. Forced                                   : No
  34. Audio #1
  35. ID                                       : 2
  36. Format                                   : AC-3
  37. Format/Info                              : Audio Coding 3
  38. Commercial name                          : Dolby Digital
  39. Codec ID                                 : A_AC3
  40. Duration                                 : 3 h 3 min
  41. Bit rate mode                            : Constant
  42. Bit rate                                 : 640 kb/s
  43. Channel(s)                               : 6 channels
  44. Channel layout                           : L R C LFE Ls Rs
  45. Sampling rate                            : 48.0 kHz
  46. Frame rate                               : 31.250 FPS (1536 SPF)
  47. Compression mode                         : Lossy
  48. Stream size                              : 838 MiB (6%)
  49. Title                                    : 英语
  50. Language                                 : English
  51. Service kind                             : Complete Main
  52. Default                                  : Yes
  53. Forced                                   : No
  54. Statistics Tags Issue                    : mkvmerge v67.0.0 ('Under Stars') 64-bit 2022-07-12 09:41:58 / mkvmerge v2.2.0 ('Turn It On Again') built on Mar  4 2008 13:20:25 2022-08-04 10:41:09
  55. FromStats_BitRate                        : 640000
  56. FromStats_Duration                       : 03:03:05.088000000
  57. FromStats_FrameCount                     : 343284
  58. FromStats_StreamSize                     : 878807040
  59. Audio #2
  60. ID                                       : 3
  61. Format                                   : AC-3
  62. Format/Info                              : Audio Coding 3
  63. Commercial name                          : Dolby Digital
  64. Codec ID                                 : A_AC3
  65. Duration                                 : 3 h 3 min
  66. Bit rate mode                            : Constant
  67. Bit rate                                 : 640 kb/s
  68. Channel(s)                               : 6 channels
  69. Channel layout                           : L R C LFE Ls Rs
  70. Sampling rate                            : 48.0 kHz
  71. Frame rate                               : 31.250 FPS (1536 SPF)
  72. Compression mode                         : Lossy
  73. Stream size                              : 838 MiB (6%)
  74. Title                                    : 国语
  75. Language                                 : Chinese
  76. Service kind                             : Complete Main
  77. Default                                  : No
  78. Forced                                   : No
  79. Statistics Tags Issue                    : mkvmerge v67.0.0 ('Under Stars') 64-bit 2022-07-12 09:41:58 / mkvmerge v2.2.0 ('Turn It On Again') built on Mar  4 2008 13:20:25 2022-08-04 10:41:09
  80. FromStats_BitRate                        : 640000
  81. FromStats_Duration                       : 03:03:05.088000000
  82. FromStats_FrameCount                     : 343284
  83. FromStats_StreamSize                     : 878807040
  84. Text
  85. ID                                       : 4
  86. Format                                   : ASS
  87. Codec ID                                 : S_TEXT/ASS
  88. Codec ID/Info                            : Advanced Sub Station Alpha
  89. Compression mode                         : Lossless
  90. Title                                    : chs
  91. Language                                 : Chinese
  92. Default                                  : Yes
  93. Forced                                   : No




下载地址:

Pearl.Harbor.2001.1080p.BluRay.x265.10bit-CTRLHD.torrent

BT9527电影天堂 1、BT9527电影天堂提供的BT文件均来源于互联网抓取,只供网友学习交流、技术提升使用。
2、我们遵守BitTorrent点对点协议原则,任何版权问题请联系原资源发布商,我们不处理任何版权纠纷,谢谢!如有争议请联系邮箱:BT9527#hotmail.com(#换成@)
3、如果您发现某页面或地址有错误,请联系站长邮箱BT9527#hotmail.com(#换成@),我们会尽快处理。您的热心是对BT9527电影天堂最大的支持。
4、本站建议去正规影院观看电影以支持电影行业发展。
最新回复 (1)
  • rtv100 37分钟前
    2
    楼主能不能找到这个版本
    片长184分钟的导演剪辑版这1分多种的血腥镜头

你可以在 登录 or 注册 后,对此帖发表评论!

返回
发新帖