杀死汝爱[中文字幕].Kill.Your.Darlings.2013.1080p.BluRay.DTS.x265-10bit-BATHD 6.07GB

版主小s 2天前 161

✔资源类型:暂未分类   ✔电影年份:2013   ✔电影地区:欧美   ✔电影分类:剧情

◎标  题 杀死汝爱
◎译  名 爱杀达令(台) / 杀掉汝爱
◎片  名 Kill Your Darlings
◎年  代 2013
◎产  地 美国
◎类  别 剧情 / 同性 / 传记
◎语  言 英语
◎上映日期 2013-01-19(圣丹斯电影节) / 2013-10-18(美国)
◎IMDb评分 6.5/10 (37038人评价)
◎IMDb链接 https://www.imdb.com/title/tt1311071/
◎豆瓣评分 7.7/10 (37948人评价)
◎豆瓣链接 https://movie.douban.com/subject/10453731/
◎片  长 104分钟
◎导  演 约翰·克洛基达斯 John Krokidas
◎编  剧 奥斯汀·邦恩 Austin Bunn
       约翰·克洛基达斯 John Krokidas
◎演  员 丹尼尔·雷德克里夫 Daniel Radcliffe
       戴恩·德哈恩 Dane DeHaan
       伊丽莎白·奥尔森 Elizabeth Olsen
       杰克·休斯顿 Jack Huston
       迈克尔·C·豪尔 Michael C. Hall
       本·福斯特 Ben Foster
       凯拉·塞吉维克 Kyra Sedgwick
       詹妮弗·杰森·李 Jennifer Jason Leigh
       大卫·克罗斯 David Cross
       大卫·拉斯彻 David Rasche
       菲尼斯·埃弗里 Finise Avery
       约翰·卡伦 John Cullum
       克雷格·切斯特 Craig Chester
       艾琳·达克 Erin Darke
       迈克尔·卡瓦迪亚斯 Michael Cavadias
       Clancy O'Connor Clancy O'Connor

◎标  签 同性 / 美国 / 传记 / 文艺 / 垮掉的一代 / 剧情 / 2013 / 青春

◎简  介
    1944年,哥伦比亚大学,年轻的学生艾伦·金斯堡(丹尼尔·雷德克里夫 Daniel Radcliffe 饰)因为一个叫卢西安·卡尔(戴恩·德哈恩 Dane DeHaan 饰)的帅气同学而改变人生轨迹。通过卡尔他认识了威廉·S·巴罗斯(本·福斯特 Ben Foster 饰)和杰克·凯鲁亚克(杰克·休斯顿 Jack Huston 饰)。在未来将写出《嚎叫》、《裸体午餐》和《在路上》等传世之作的垮掉文学巨匠们,当时还只是少不更事的年轻人。他们因为卡尔而热心开展名为“新视界”的文化运动,结成了一个亲密的四人世界。而在这个世界之外,一个叫大卫·卡默偌(迈克尔·C·豪尔 Michael C. Hall 饰)的中年男子正用贪恋爱慕的目光打量进来。他是卡尔的老师、监护人、尾随者和...爱人?某晚当卡默偌的尸体在校园附近的哈德森河被发现后,年轻人发现他们被卷入一桩充满情感湍流的谋杀案中,自由的世界被彻底碾碎,他们怀着沉重的心情各奔前程......                                    
                                  本片根据真人真事改编,讲述未来文学巨匠们在成长年代经历的“小革命”,用黑色音符弹奏出“垮掉一代”诞生的初乐章。英国童星丹尼尔·雷德克利弗在片中饰演著名同志诗人金斯堡,成功洗去了哈利波特留下的痕迹。《杀死汝爱》入围第29届圣丹斯国际电影节美国主竞赛单元。
  1. ##### MediaInfo ######
  2. General
  3. Unique ID                                : 193398893611929829892439550507515914512 (0x917F45A48901F29915C60708FAE42910)
  4. Complete name                            : Kill.Your.Darlings.2013.1080p.BluRay.DTS.x265-10bit-BATHD.mkv
  5. Format                                   : Matroska
  6. Format version                           : Version 4
  7. File size                                : 6.07 GiB
  8. Duration                                 : 1 h 42 min
  9. Overall bit rate                         : 8 463 kb/s
  10. Movie name                               : Kill Your Darlings 2013 1080p BluRay DTS x265-10bit-HDS
  11. Encoded date                             : UTC 2022-08-04 13:33:24
  12. Writing application                      : mkvmerge v67.0.0 ('Under Stars') 64-bit
  13. Writing library                          : libebml v1.4.2 + libmatroska v1.6.4
  14. Video
  15. ID                                       : 1
  16. Format                                   : HEVC
  17. Format/Info                              : High Efficiency Video Coding
  18. Format profile                           : Main 10@L5.1@High
  19. Codec ID                                 : V_MPEGH/ISO/HEVC
  20. Duration                                 : 1 h 42 min
  21. Bit rate                                 : 6 929 kb/s
  22. Width                                    : 1 920 pixels
  23. Height                                   : 800 pixels
  24. Display aspect ratio                     : 2.40:1
  25. Frame rate mode                          : Constant
  26. Frame rate                               : 23.976 (24000/1001/53354) FPS
  27. Color space                              : YUV
  28. Chroma subsampling                       : 4:2:0
  29. Bit depth                                : 10 bits
  30. Bits/(Pixel*Frame)                       : 0.188
  31. Stream size                              : 4.97 GiB (82%)
  32. Title                                    : CBGSS@HDSky
  33. Writing library                          : x265 - H.265/HEVC codec
  34. Default                                  : Yes
  35. Forced                                   : No
  36. Audio
  37. ID                                       : 2
  38. Format                                   : DTS
  39. Format/Info                              : Digital Theater Systems
  40. Codec ID                                 : A_DTS
  41. Duration                                 : 1 h 42 min
  42. Bit rate mode                            : Constant
  43. Bit rate                                 : 1 509 kb/s
  44. Channel(s)                               : 6 channels
  45. Channel layout                           : C L R Ls Rs LFE
  46. Sampling rate                            : 48.0 kHz
  47. Frame rate                               : 93.750 FPS (512 SPF)
  48. Bit depth                                : 24 bits
  49. Compression mode                         : Lossy
  50. Stream size                              : 1.08 GiB (18%)
  51. Title                                    : English
  52. Language                                 : English
  53. Default                                  : Yes
  54. Forced                                   : No
  55. Text #1
  56. ID                                       : 3
  57. Format                                   : PGS
  58. Muxing mode                              : zlib
  59. Codec ID                                 : S_HDMV/PGS
  60. Codec ID/Info                            : Picture based subtitle format used on BDs/HD-DVDs
  61. Duration                                 : 1 h 33 min
  62. Bit rate                                 : 27.5 kb/s
  63. Count of elements                        : 2252
  64. Stream size                              : 18.4 MiB (0%)
  65. Title                                    : CHS
  66. Language                                 : Chinese
  67. Default                                  : Yes
  68. Forced                                   : No
  69. Text #2
  70. ID                                       : 4
  71. Format                                   : PGS
  72. Muxing mode                              : zlib
  73. Codec ID                                 : S_HDMV/PGS
  74. Codec ID/Info                            : Picture based subtitle format used on BDs/HD-DVDs
  75. Duration                                 : 1 h 36 min
  76. Bit rate                                 : 26.3 kb/s
  77. Count of elements                        : 2530
  78. Stream size                              : 18.2 MiB (0%)
  79. Title                                    : ENG
  80. Language                                 : English
  81. Default                                  : Yes
  82. Forced                                   : No
  83. Menu
  84. 00:00:00.000                             : en:第 01 章
  85. 00:05:39.339                             : en:第 02 章
  86. 00:09:11.926                             : en:第 03 章
  87. 00:13:45.992                             : en:第 04 章
  88. 00:23:31.118                             : en:第 05 章
  89. 00:28:50.354                             : en:第 06 章
  90. 00:36:31.272                             : en:第 07 章
  91. 00:42:13.781                             : en:第 08 章
  92. 00:45:57.838                             : en:第 09 章
  93. 00:54:10.622                             : en:第 10 章
  94. 00:57:41.583                             : en:第 11 章
  95. 01:03:23.508                             : en:第 12 章
  96. 01:08:16.509                             : en:第 13 章
  97. 01:12:17.583                             : en:第 14 章
  98. 01:20:11.807                             : en:第 15 章
  99. 01:28:02.319                             : en:第 16 章




下载地址:

Kill.Your.Darlings.2013.1080p.BluRay.DTS.x265-10bit-BATHD.torrent

BT9527电影天堂 1、BT9527电影天堂提供的BT文件均来源于互联网抓取,只供网友学习交流、技术提升使用。
2、我们遵守BitTorrent点对点协议原则,任何版权问题请联系原资源发布商,我们不处理任何版权纠纷,谢谢!如有争议请联系邮箱:BT9527#hotmail.com(#换成@)
3、如果您发现某页面或地址有错误,请联系站长邮箱BT9527#hotmail.com(#换成@),我们会尽快处理。您的热心是对BT9527电影天堂最大的支持。
4、本站建议去正规影院观看电影以支持电影行业发展。
最新回复 (0)

你可以在 登录 or 注册 后,对此帖发表评论!

返回
发新帖