铁血战士:猎物[中文字幕].Prey.2022.1080p.DSNP.WEBRip.DDP5.1.Atmos.x264-CM 5.11GB

版主小s 2天前 424

◎译 名 铁血战士:猎物 / 铁血战士5 / 终极战士:兽猎者(台) / 铁血战士:骷髅 / Skulls / 铁血战士:狩猎追击(港)

◎片 名 Prey

◎年 代 2022

◎产 地 美国

◎类 别 动作 / 科幻 / 恐怖

◎语 言 英语

◎上映日期 2022-08-05(美国网络)

◎IMDb链接 https://www.imdb.com/title/tt11866324/

◎豆瓣链接 https://movie.douban.com/subject/35262994/

◎导 演 丹·特拉亨伯格 Dan Trachtenberg (id:1354103)

◎演 员 安伯·明迪桑德 Amber Midthunder (id:1337934)

戴恩·迪利格罗 Dane DiLiegro (id:1463457)

斯蒂芬·马蒂亚斯 Stefany Mathias (id:1119908)

斯托米·基普 Stormee Kipp (id:1471886)

达寇塔·比弗 Dakota Beavers (id:1471887)

杰夫·卡特 Jeff Cutter (id:1473979)

◎简 介

Prey is coming to Hulu August 5

“Prey,” an all-new action-thriller from 20th Century Studios directed by Dan Trachtenberg (“The Boys,” “10 Cloverfield Lane”) and the newest entry in the “Predator” franchise, will stream August 5, 2022, exclusively on Hulu.

Set in the Comanche Nation 300 years ago, “Prey” is the story of a young woman, Naru, a fierce and highly skilled warrior....

  1. Video

  2. ID : 1

  3. Format : AVC

  4. Format/Info : Advanced Video Codec

  5. Format profile : High@L4

  6. Format settings : CABAC / 4 Ref Frames

  7. Format settings, CABAC : Yes

  8. Format settings, Reference frames : 4 frames

  9. Codec ID : V_MPEG4/ISO/AVC

  10. Duration : 1 h 39 min

  11. Bit rate mode : Variable

  12. Bit rate : 6 577 kb/s

  13. Maximum bit rate : 12.7 Mb/s

  14. Width : 1 920 pixels

  15. Height : 1 080 pixels

  16. Display aspect ratio : 16:9

  17. Frame rate mode : Constant

  18. Frame rate : 24.000 FPS

  19. Color space : YUV

  20. Chroma subsampling : 4:2:0

  21. Bit depth : 8 bits

  22. Scan type : Progressive

  23. Bits/(Pixel*Frame) : 0.132

  24. Stream size : 4.57 GiB (90%)

  25. Language : English

  26. Default : Yes

  27. Forced : No

  28. Color range : Limited

  29. Color primaries : BT.709

  30. Transfer characteristics : BT.709

  31. Matrix coefficients : BT.709


  32. Audio

  33. ID : 2

  34. Format : E-AC-3 JOC

  35. Format/Info : Enhanced AC-3 with Joint Object Coding

  36. Commercial name : Dolby Digital Plus with Dolby Atmos

  37. Codec ID : A_EAC3

  38. Duration : 1 h 39 min

  39. Bit rate mode : Constant

  40. Bit rate : 768 kb/s

  41. Channel(s) : 6 channels

  42. Channel layout : L R C LFE Ls Rs

  43. Sampling rate : 48.0 kHz

  44. Frame rate : 31.250 FPS (1536 SPF)

  45. Compression mode : Lossy

  46. Stream size : 547 MiB (10%)

  47. Language : English

  48. Service kind : Complete Main

  49. Default : Yes

  50. Forced : No

  51. Complexity index : 16

  52. Number of dynamic objects : 15

  53. Bed channel count : 1 channel

  54. Bed channel configuration : LFE


  55. Text #1

  56. ID : 3

  57. Format : UTF-8

  58. Codec ID : S_TEXT/UTF8

  59. Codec ID/Info : UTF-8 Plain Text

  60. Duration : 1 h 29 min

  61. Bit rate : 29 b/s

  62. Frame rate : 0.158 FPS

  63. Count of elements : 852

  64. Stream size : 19.5 KiB (0%)

  65. Title : SDH

  66. Language : English

  67. Default : No

  68. Forced : No


  69. Text #2

  70. ID : 4

  71. Format : UTF-8

  72. Codec ID : S_TEXT/UTF8

  73. Codec ID/Info : UTF-8 Plain Text

  74. Duration : 1 h 28 min

  75. Bit rate : 15 b/s

  76. Frame rate : 0.072 FPS

  77. Count of elements : 381

  78. Stream size : 9.78 KiB (0%)

  79. Language : English

  80. Default : No

  81. Forced : No


  82. Text #3

  83. ID : 5

  84. Format : UTF-8

  85. Codec ID : S_TEXT/UTF8

  86. Codec ID/Info : UTF-8 Plain Text

  87. Duration : 1 h 38 min

  88. Bit rate : 10 b/s

  89. Frame rate : 0.048 FPS

  90. Count of elements : 287

  91. Stream size : 7.78 KiB (0%)

  92. Language : Czech

  93. Default : No

  94. Forced : No


  95. Text #4

  96. ID : 6

  97. Format : UTF-8

  98. Codec ID : S_TEXT/UTF8

  99. Codec ID/Info : UTF-8 Plain Text

  100. Duration : 1 h 38 min

  101. Bit rate : 10 b/s

  102. Frame rate : 0.050 FPS

  103. Count of elements : 296

  104. Stream size : 7.70 KiB (0%)

  105. Language : Danish

  106. Default : No

  107. Forced : No


  108. Text #5

  109. ID : 7

  110. Format : UTF-8

  111. Codec ID : S_TEXT/UTF8

  112. Codec ID/Info : UTF-8 Plain Text

  113. Duration : 1 h 38 min

  114. Bit rate : 11 b/s

  115. Frame rate : 0.048 FPS

  116. Count of elements : 286

  117. Stream size : 8.25 KiB (0%)

  118. Language : German

  119. Default : No

  120. Forced : No


  121. Text #6

  122. ID : 8

  123. Format : UTF-8

  124. Codec ID : S_TEXT/UTF8

  125. Codec ID/Info : UTF-8 Plain Text

  126. Duration : 1 h 38 min

  127. Bit rate : 19 b/s

  128. Frame rate : 0.050 FPS

  129. Count of elements : 299

  130. Stream size : 14.1 KiB (0%)

  131. Language : Greek

  132. Default : No

  133. Forced : No


  134. Text #7

  135. ID : 9

  136. Format : UTF-8

  137. Codec ID : S_TEXT/UTF8

  138. Codec ID/Info : UTF-8 Plain Text

  139. Duration : 1 h 38 min

  140. Bit rate : 11 b/s

  141. Frame rate : 0.050 FPS

  142. Count of elements : 298

  143. Stream size : 8.22 KiB (0%)

  144. Language : Spanish

  145. Default : No

  146. Forced : No


  147. Text #8

  148. ID : 10

  149. Format : UTF-8

  150. Codec ID : S_TEXT/UTF8

  151. Codec ID/Info : UTF-8 Plain Text

  152. Duration : 1 h 38 min

  153. Bit rate : 10 b/s

  154. Frame rate : 0.050 FPS

  155. Count of elements : 297

  156. Stream size : 7.84 KiB (0%)

  157. Title : Latin American

  158. Language : Spanish

  159. Default : No

  160. Forced : No


  161. Text #9

  162. ID : 11

  163. Format : UTF-8

  164. Codec ID : S_TEXT/UTF8

  165. Codec ID/Info : UTF-8 Plain Text

  166. Duration : 1 h 38 min

  167. Bit rate : 11 b/s

  168. Frame rate : 0.049 FPS

  169. Count of elements : 293

  170. Stream size : 8.38 KiB (0%)

  171. Language : Finnish

  172. Default : No

  173. Forced : No


  174. Text #10

  175. ID : 12

  176. Format : UTF-8

  177. Codec ID : S_TEXT/UTF8

  178. Codec ID/Info : UTF-8 Plain Text

  179. Duration : 1 h 38 min

  180. Bit rate : 11 b/s

  181. Frame rate : 0.049 FPS

  182. Count of elements : 290

  183. Stream size : 8.25 KiB (0%)

  184. Language : French

  185. Default : No

  186. Forced : No


  187. Text #11

  188. ID : 13

  189. Format : UTF-8

  190. Codec ID : S_TEXT/UTF8

  191. Codec ID/Info : UTF-8 Plain Text

  192. Duration : 1 h 38 min

  193. Bit rate : 10 b/s

  194. Frame rate : 0.050 FPS

  195. Count of elements : 297

  196. Stream size : 7.93 KiB (0%)

  197. Language : Hungarian

  198. Default : No

  199. Forced : No


  200. Text #12

  201. ID : 14

  202. Format : UTF-8

  203. Codec ID : S_TEXT/UTF8

  204. Codec ID/Info : UTF-8 Plain Text

  205. Duration : 1 h 38 min

  206. Bit rate : 10 b/s

  207. Frame rate : 0.049 FPS

  208. Count of elements : 292

  209. Stream size : 7.42 KiB (0%)

  210. Language : Italian

  211. Default : No

  212. Forced : No


  213. Text #13

  214. ID : 15

  215. Format : UTF-8

  216. Codec ID : S_TEXT/UTF8

  217. Codec ID/Info : UTF-8 Plain Text

  218. Duration : 1 h 38 min

  219. Bit rate : 12 b/s

  220. Frame rate : 0.061 FPS

  221. Count of elements : 364

  222. Stream size : 9.31 KiB (0%)

  223. Language : Japanese

  224. Default : No

  225. Forced : No


  226. Text #14

  227. ID : 16

  228. Format : UTF-8

  229. Codec ID : S_TEXT/UTF8

  230. Codec ID/Info : UTF-8 Plain Text

  231. Duration : 1 h 38 min

  232. Bit rate : 11 b/s

  233. Frame rate : 0.050 FPS

  234. Count of elements : 299

  235. Stream size : 8.63 KiB (0%)

  236. Language : Korean

  237. Default : No

  238. Forced : No


  239. Text #15

  240. ID : 17

  241. Format : UTF-8

  242. Codec ID : S_TEXT/UTF8

  243. Codec ID/Info : UTF-8 Plain Text

  244. Duration : 1 h 38 min

  245. Bit rate : 11 b/s

  246. Frame rate : 0.045 FPS

  247. Count of elements : 267

  248. Stream size : 8.13 KiB (0%)

  249. Language : Dutch

  250. Default : No

  251. Forced : No


  252. Text #16

  253. ID : 18

  254. Format : UTF-8

  255. Codec ID : S_TEXT/UTF8

  256. Codec ID/Info : UTF-8 Plain Text

  257. Duration : 1 h 38 min

  258. Bit rate : 11 b/s

  259. Frame rate : 0.038 FPS

  260. Count of elements : 227

  261. Stream size : 8.23 KiB (0%)

  262. Language : Norwegian

  263. Default : No

  264. Forced : No


  265. Text #17

  266. ID : 19

  267. Format : UTF-8

  268. Codec ID : S_TEXT/UTF8

  269. Codec ID/Info : UTF-8 Plain Text

  270. Duration : 1 h 38 min

  271. Bit rate : 10 b/s

  272. Frame rate : 0.049 FPS

  273. Count of elements : 290

  274. Stream size : 7.81 KiB (0%)

  275. Language : Polish

  276. Default : No

  277. Forced : No


  278. Text #18

  279. ID : 20

  280. Format : UTF-8

  281. Codec ID : S_TEXT/UTF8

  282. Codec ID/Info : UTF-8 Plain Text

  283. Duration : 1 h 38 min

  284. Bit rate : 11 b/s

  285. Frame rate : 0.050 FPS

  286. Count of elements : 296

  287. Stream size : 8.29 KiB (0%)

  288. Language : Portuguese

  289. Default : No

  290. Forced : No


  291. Text #19

  292. ID : 21

  293. Format : UTF-8

  294. Codec ID : S_TEXT/UTF8

  295. Codec ID/Info : UTF-8 Plain Text

  296. Duration : 1 h 38 min

  297. Bit rate : 11 b/s

  298. Frame rate : 0.050 FPS

  299. Count of elements : 295

  300. Stream size : 8.15 KiB (0%)

  301. Title : Brazilian

  302. Language : Portuguese

  303. Default : No

  304. Forced : No


  305. Text #20

  306. ID : 22

  307. Format : UTF-8

  308. Codec ID : S_TEXT/UTF8

  309. Codec ID/Info : UTF-8 Plain Text

  310. Duration : 1 h 38 min

  311. Bit rate : 11 b/s

  312. Frame rate : 0.044 FPS

  313. Count of elements : 261

  314. Stream size : 8.03 KiB (0%)

  315. Language : Romanian

  316. Default : No

  317. Forced : No


  318. Text #21

  319. ID : 23

  320. Format : UTF-8

  321. Codec ID : S_TEXT/UTF8

  322. Codec ID/Info : UTF-8 Plain Text

  323. Duration : 1 h 38 min

  324. Bit rate : 10 b/s

  325. Frame rate : 0.050 FPS

  326. Count of elements : 298

  327. Stream size : 7.84 KiB (0%)

  328. Language : Slovak

  329. Default : No

  330. Forced : No


  331. Text #22

  332. ID : 24

  333. Format : UTF-8

  334. Codec ID : S_TEXT/UTF8

  335. Codec ID/Info : UTF-8 Plain Text

  336. Duration : 1 h 38 min

  337. Bit rate : 10 b/s

  338. Frame rate : 0.050 FPS

  339. Count of elements : 295

  340. Stream size : 7.71 KiB (0%)

  341. Language : Swedish

  342. Default : No

  343. Forced : No


  344. Text #23

  345. ID : 25

  346. Format : UTF-8

  347. Codec ID : S_TEXT/UTF8

  348. Codec ID/Info : UTF-8 Plain Text

  349. Duration : 1 h 38 min

  350. Bit rate : 11 b/s

  351. Frame rate : 0.050 FPS

  352. Count of elements : 296

  353. Stream size : 8.24 KiB (0%)

  354. Language : Turkish

  355. Default : No

  356. Forced : No


  357. Text #24

  358. ID : 26

  359. Format : UTF-8

  360. Codec ID : S_TEXT/UTF8

  361. Codec ID/Info : UTF-8 Plain Text

  362. Duration : 1 h 38 min

  363. Bit rate : 10 b/s

  364. Frame rate : 0.050 FPS

  365. Count of elements : 298

  366. Stream size : 7.91 KiB (0%)

  367. Title : Hong Kong

  368. Language : Chinese

  369. Default : No

  370. Forced : No


  371. Text #25

  372. ID : 27

  373. Format : UTF-8

  374. Codec ID : S_TEXT/UTF8

  375. Codec ID/Info : UTF-8 Plain Text

  376. Duration : 1 h 38 min

  377. Bit rate : 11 b/s

  378. Frame rate : 0.050 FPS

  379. Count of elements : 299

  380. Stream size : 8.32 KiB (0%)

  381. Title : Simplified

  382. Language : Chinese

  383. Default : No

  384. Forced : No


  385. Text #26

  386. ID : 28

  387. Format : UTF-8

  388. Codec ID : S_TEXT/UTF8

  389. Codec ID/Info : UTF-8 Plain Text

  390. Duration : 1 h 38 min

  391. Bit rate : 10 b/s

  392. Frame rate : 0.050 FPS

  393. Count of elements : 299

  394. Stream size : 7.92 KiB (0%)

  395. Title : Traditional

  396. Language : Chinese

  397. Default : No

  398. Forced : No


  399. Menu

  400. 01:32:13.000 : Credits

复制代码

  


磁力链:
  • magnet:?xt=urn:btih:429F98748BB3084CDC5190EA9BA073CE8DAD32A7
上传的附件:
BT9527电影天堂 1、BT9527电影天堂提供的BT文件均来源于互联网抓取,只供网友学习交流、技术提升使用。
2、我们遵守BitTorrent点对点协议原则,任何版权问题请联系原资源发布商,我们不处理任何版权纠纷,谢谢!如有争议请联系邮箱:BT9527#hotmail.com(#换成@)
3、如果您发现某页面或地址有错误,请联系站长邮箱BT9527#hotmail.com(#换成@),我们会尽快处理。您的热心是对BT9527电影天堂最大的支持。
4、本站建议去正规影院观看电影以支持电影行业发展。
最新回复 (4)
  • ToT丶Crysis 2天前
    2
    谢谢分享··希望这次的铁血··别扑街了··
  • 3
    太棒了 最新出来的一部,谢谢分享 
  • 4
    哇塞 今天刚刚出来的,好及时啊 谢谢分享 因为你们的付出 所以我们大家才能看到这么多好看的影视剧
  • 252079517 2天前
    5
    你们有字幕吗?

你可以在 登录 or 注册 后,对此帖发表评论!

返回
发新帖