古惑仔3之只手遮天[国粤英多音轨/简繁英字幕].Young.and.Dangerous.3.1996.BluRay.1080p.2Audio.DTS-HD.MA.2.0.x265.10bit-ALT 10.70GB

版主小s 1月前 109

✔资源类型:暂未分类   ✔电影年份:更 早   ✔电影地区:香港   ✔电影分类:剧情

◎标  题 古惑仔3之只手遮天
◎译  名 Young and Dangerous 3
◎片  名 古惑仔3之隻手遮天
◎年  代 1996
◎产  地 中国香港
◎类  别 剧情 / 动作
◎语  言 粤语 / 英语 / 汉语普通话 / 荷兰语
◎上映日期 1996-06-29(中国香港)
◎IMDb评分 6.6/10 (1077人评价)
◎IMDb链接 https://www.imdb.com/title/tt0116455/
◎豆瓣评分 7.7/10 (90522人评价)
◎豆瓣链接 https://movie.douban.com/subject/1301283/
◎片  长 98 分钟
◎导  演 刘伟强 Andrew Lau
◎编  剧 文隽 Manfred Wong
       秋婷 Ting Chau
◎演  员 郑伊健 Ekin Cheng
       陈小春 Jordan Chan
       张耀扬 Roy Cheung
       莫文蔚 Karen Mok
       黎姿 Gigi Lai
       任达华 Simon Yam
       林晓峰 Jerry Lamb
       朱永棠 Jason Chu
       林尚义 Spencer Lam
       谢天华 Michael Tse
       黄秋生 Anthony Wong Chau-Sang
       柯受良 Sau Leung 'Blacky' Ko
       陈惠敏 Wai-Man Chan
       吴志雄 Chi Hung Ng
       刘宝贤 Bowie Lau
       韩坤 Victor Hon Kwan
       黄金棠 Kam-Tong Wong
       蔡业信 Raven Choi Yip-San
       王文成 Man Shing Wong
       罗伟佳 Wai-Kai Law
       萧洪 Siu Hung
       李道谕 Do-Yu Lee
       梁焯满 Sammuel Leung
       谭小环 Halina Tam
       罗兰 Lan Law
       元彬 Bun Yuen
       陈国坤 Kwok-Kwan Chan
       李兆基 Siu-Kei Lee
       黄斌 Ronald Wong
       伍乐城 Ronald Ng
       许愿 Clarence Hui
       刘伟强 Andrew Lau
       麦子善 Marco Mak
       何剑雄 Cyrus Ho
       利碧君 Pik Kwan Lee
       林迪安 Dion Lam
       江玉仪 Ivy Kong
       黄志明 Wong Chi-Ming

◎简  介
  东升社在老大骆驼的重整下声势日盛,而洪兴社在蒋天生(任达华饰)的管理下亦蒸蒸日上。两个帮派暗中有不少争斗,但表面上两个帮派仍和和气气。                                    
                                东升社的乌鸦(张耀杨饰)野心极大。他在东升社的最大势力所在地荷兰阿姆斯特丹市枪杀蒋天生,再嫁祸于陈浩南(郑伊健饰)。洪兴社的众人都以为陈浩南勾结外人杀死了蒋天生,派出大飞追杀陈浩南,陈浩南侥幸逃脱。                                    
                                乌鸦见骆驼病重,乘机将其杀害,顺利坐上了东升社老大的位置。乌鸦准备为骆驼举办一场风光大葬。葬礼当日,各路江湖人马齐聚灵场,浩南、山鸡(陈小春饰)亦出现了…
  1. ##### MediaInfo ######
  2. General
  3. Unique ID                                : 219710430880327712286501093953895288711 (0xA54AB09640871FE225276E1DA6BE4F87)
  4. Complete name                            : Young.and.Dangerous.3.1996.BluRay.1080p.2Audio.DTS-HD.MA.2.0.x265.10bit-ALT.mkv
  5. Format                                   : Matroska
  6. Format version                           : Version 4
  7. File size                                : 10.7 GiB
  8. Duration                                 : 1 h 38 min
  9. Overall bit rate mode                    : Variable
  10. Overall bit rate                         : 15.6 Mb/s
  11. Encoded date                             : UTC 2022-07-04 06:20:04
  12. Writing application                      : mkvmerge v49.0.0 ('Sick Of Losing Soulmates') 64-bit
  13. Writing library                          : libebml v1.4.0 + libmatroska v1.6.1
  14. Video
  15. ID                                       : 1
  16. Format                                   : HEVC
  17. Format/Info                              : High Efficiency Video Coding
  18. Format profile                           : Main 10@L5.1@High
  19. Codec ID                                 : V_MPEGH/ISO/HEVC
  20. Duration                                 : 1 h 38 min
  21. Bit rate                                 : 13.9 Mb/s
  22. Width                                    : 1 920 pixels
  23. Height                                   : 1 080 pixels
  24. Display aspect ratio                     : 16:9
  25. Frame rate mode                          : Constant
  26. Frame rate                               : 24.000 FPS
  27. Color space                              : YUV
  28. Chroma subsampling                       : 4:2:0
  29. Bit depth                                : 10 bits
  30. Bits/(Pixel*Frame)                       : 0.280
  31. Stream size                              : 9.55 GiB (89%)
  32. Title                                    : HEVC, x265Main10@L5.1@High, 24 fps @ 13917 kbps
  33. Writing library                          : x265 3.5+36-1f2c8da77:[Windows][GCC 11.2.0][64 bit] 10bit
  34. Encoding settings                        : cpuid=533541111039 / frame-threads=4 / numa-pools=16 / wpp / no-pmode / no-pme / no-psnr / no-ssim / log-level=2 / input-csp=1 / input-res=1920x1080 / interlace=0 / total-frames=141467 / level-idc=51 / high-tier=1 / uhd-bd=0 / ref=5 / no-allow-non-conformance / no-repeat-headers / annexb / no-aud / no-eob / no-eos / no-hrd / info / hash=0 / no-temporal-layers / open-gop / min-keyint=24 / keyint=240 / gop-lookahead=0 / bframes=6 / b-adapt=2 / b-pyramid / bframe-bias=0 / rc-lookahead=40 / lookahead-slices=0 / NTMzNTQ=uuDQuD2mJt9fsCf / scenecut=40 / no-hist-scenecut / radl=0 / no-splice / no-intra-refresh / ctu=32 / min-cu-size=8 / no-rect / no-amp / max-tu-size=32 / tu-inter-depth=3 / tu-intra-depth=3 / limit-tu=4 / rdoq-level=2 / dynamic-rd=0.00 / no-ssim-rd / signhide / no-tskip / nr-intra=0 / nr-inter=0 / no-constrained-intra / no-strong-intra-smoothing / max-merge=4 / limit-refs=1 / limit-modes / me=3 / subme=4 / merange=25 / temporal-mvp / no-frame-dup / no-hme / weightp / weightb / no-analyze-src-pics / deblock=-3:-3 / no-sao / no-sao-non-deblock / rd=6 / selective-sao=0 / no-early-skip / rskip / no-fast-intra / no-tskip-fast / no-cu-lossless / b-intra / no-splitrd-skip / rdpenalty=0 / psy-rd=2.00 / psy-rdoq=1.00 / no-rd-refine / no-lossless / cbqpoffs=-2 / crqpoffs=-2 / rc=crf / crf=21.5 / qcomp=0.65 / qpstep=4 / stats-write=0 / stats-read=0 / vbv-maxrate=80000 / vbv-bufsize=80000 / vbv-init=0.9 / min-vbv-fullness=50.0 / max-vbv-fullness=80.0 / crf-max=0.0 / crf-min=0.0 / ipratio=1.40 / pbratio=1.30 / aq-mode=2 / aq-strength=0.85 / cutree / zone-count=0 / no-strict-cbr / qg-size=32 / no-rc-grain / qpmax=69 / qpmin=0 / no-const-vbv / sar=1 / overscan=0 / videoformat=5 / range=0 / colorprim=1 / transfer=1 / colormatrix=1 / chromaloc=0 / display-window=0 / cll=0,0 / min-luma=0 / max-luma=1023 / log2-max-poc-lsb=8 / vui-timing-info / vui-hrd-info / slices=1 / no-opt-qp-pps / no-opt-ref-list-length-pps / no-multi-pass-opt-rps / scenecut-bias=0.05 / hist-threshold=0.03 / no-opt-cu-delta-qp / no-aq-motion / no-hdr10 / no-hdr10-opt / no-dhdr10-opt / no-idr-recovery-sei / analysis-reuse-level=0 / analysis-save-reuse-level=0 / analysis-load-reuse-level=0 / scale-factor=0 / refine-intra=0 / refine-inter=0 / refine-mv=1 / refine-ctu-distortion=0 / no-limit-sao / ctu-info=0 / no-lowpass-dct / refine-analysis-type=0 / copy-pic=1 / max-ausize-factor=1.0 / no-dynamic-refine / no-single-sei / no-hevc-aq / no-svt / no-field / qp-adaptation-range=1.00 / scenecut-aware-qp=0conformance-window-offsets / right=0 / bottom=0 / NTMzNTQ= / decoder-max-rate=0 / no-vbv-live-multi-pass
  35. Language                                 : English
  36. Default                                  : Yes
  37. Forced                                   : No
  38. Color range                              : Limited
  39. Color primaries                          : BT.709
  40. Transfer characteristics                 : BT.709
  41. Matrix coefficients                      : BT.709
  42. Audio #1
  43. ID                                       : 2
  44. Format                                   : DTS XLL
  45. Format/Info                              : Digital Theater Systems
  46. Commercial name                          : DTS-HD Master Audio
  47. Codec ID                                 : A_DTS
  48. Duration                                 : 1 h 38 min
  49. Bit rate mode                            : Variable
  50. Bit rate                                 : 775 kb/s
  51. Channel(s)                               : 2 channels
  52. Channel layout                           : L R
  53. Sampling rate                            : 48.0 kHz
  54. Frame rate                               : 93.750 FPS (512 SPF)
  55. Bit depth                                : 16 bits
  56. Compression mode                         : Lossless
  57. Stream size                              : 544 MiB (5%)
  58. Title                                    : Cantonese DTS-HD Master Audio 2.0 @ 776 kbps
  59. Language                                 : Chinese
  60. Default                                  : Yes
  61. Forced                                   : No
  62. Audio #2
  63. ID                                       : 3
  64. Format                                   : DTS XLL
  65. Format/Info                              : Digital Theater Systems
  66. Commercial name                          : DTS-HD Master Audio
  67. Codec ID                                 : A_DTS
  68. Duration                                 : 1 h 38 min
  69. Bit rate mode                            : Variable
  70. Bit rate                                 : 745 kb/s
  71. Channel(s)                               : 2 channels
  72. Channel layout                           : L R
  73. Sampling rate                            : 48.0 kHz
  74. Frame rate                               : 93.750 FPS (512 SPF)
  75. Bit depth                                : 16 bits
  76. Compression mode                         : Lossless
  77. Stream size                              : 524 MiB (5%)
  78. Title                                    : Mandarin DTS-HD Master Audio 2.0 @ 746 kbps
  79. Language                                 : Chinese
  80. Default                                  : No
  81. Forced                                   : No
  82. Text #1
  83. ID                                       : 4
  84. Format                                   : PGS
  85. Codec ID                                 : S_HDMV/PGS
  86. Codec ID/Info                            : Picture based subtitle format used on BDs/HD-DVDs
  87. Duration                                 : 1 h 35 min
  88. Bit rate                                 : 49.2 kb/s
  89. Count of elements                        : 2493
  90. Stream size                              : 33.7 MiB (0%)
  91. Title                                    : Cht/SUP  原盘繁体
  92. Language                                 : Chinese
  93. Default                                  : No
  94. Forced                                   : No
  95. Text #2
  96. ID                                       : 5
  97. Format                                   : PGS
  98. Codec ID                                 : S_HDMV/PGS
  99. Codec ID/Info                            : Picture based subtitle format used on BDs/HD-DVDs
  100. Duration                                 : 1 h 35 min
  101. Bit rate                                 : 48.9 kb/s
  102. Count of elements                        : 2529
  103. Stream size                              : 33.5 MiB (0%)
  104. Title                                    : Chs/SUP  原盘简体
  105. Language                                 : Chinese
  106. Default                                  : Yes
  107. Forced                                   : No
  108. Text #3
  109. ID                                       : 6
  110. Format                                   : PGS
  111. Codec ID                                 : S_HDMV/PGS
  112. Codec ID/Info                            : Picture based subtitle format used on BDs/HD-DVDs
  113. Duration                                 : 1 h 35 min
  114. Bit rate                                 : 52.7 kb/s
  115. Count of elements                        : 2525
  116. Stream size                              : 36.2 MiB (0%)
  117. Title                                    : Eng/SUP
  118. Language                                 : English
  119. Default                                  : No
  120. Forced                                   : No
  121. Menu
  122. 00:00:00.000                             : en:第 01 章
  123. 00:09:39.167                             : en:第 02 章
  124. 00:15:03.958                             : en:第 03 章
  125. 00:25:58.833                             : en:第 04 章
  126. 00:31:08.708                             : en:第 05 章
  127. 00:40:38.583                             : en:第 06 章
  128. 00:47:19.875                             : en:第 07 章
  129. 00:58:30.750                             : en:第 08 章
  130. 01:06:54.167                             : en:第 09 章
  131. 01:11:31.000                             : en:第 10 章
  132. 01:17:39.792                             : en:第 11 章
  133. 01:27:33.000                             : en:第 12 章





此处一般会放置磁力链或种子下载链接,不过此链接需要注册会员才能看到,点击“立即注册”
磁力链下载【下载链接仅对注册会员开放,登陆后可见】
BT9527电影天堂 1、BT9527电影天堂提供的BT文件均来源于互联网抓取,只供网友学习交流、技术提升使用。
2、我们遵守BitTorrent点对点协议原则,任何版权问题请联系原资源发布商,我们不处理任何版权纠纷,谢谢!如有争议请联系邮箱:BT9527#hotmail.com(#换成@)
3、如果您发现某页面或地址有错误,请联系站长邮箱BT9527#hotmail.com(#换成@),我们会尽快处理。您的热心是对BT9527电影天堂最大的支持。
4、本站建议去正规影院观看电影以支持电影行业发展。
最新回复 (0)

你可以在 登录 or 注册 后,对此帖发表评论!

返回
发新帖