双瞳[国粤多音轨/简繁字幕].Double.Vision.2002.1080p.BluRay.DTS.2Audio.x265-10bit-CHDBits 9.82GB

版主小s 1月前 177

✔资源类型:暂未分类   ✔电影年份:更 早   ✔电影地区:香港   ✔电影分类:剧情

◎标  题 双瞳
◎译  名 Double Vision
◎片  名 雙瞳
◎年  代 2002
◎产  地 中国香港 / 中国台湾
◎类  别 剧情 / 悬疑 / 惊悚 / 犯罪
◎语  言 汉语普通话 / 台语 / 英语
◎上映日期 2002-10-25(中国台湾)
◎IMDb评分 6.4/10 (2813人评价)
◎IMDb链接 https://www.imdb.com/title/tt0284066/
◎豆瓣评分 7.7/10 (113771人评价)
◎豆瓣链接 https://movie.douban.com/subject/1305046/
◎片  长 113分钟
◎导  演 陈国富 Kuo-fu Chen
◎编  剧 苏照彬 Chao-Bin Su
       陈国富 Kuo-fu Chen
◎演  员 梁家辉 Tony Leung
       刘若英 René Liu
       戴立忍 Leon Dai
       大卫·摩斯 David Morse
       杨贵媚 Kuei-Mei Yang
       林涵 Han Lin
       郎雄 Sihung Lung
       蔡灿得 Vega Tsai
       江惠惠 Hui-Hui Chiang
       叶蕙芝 Yeh Hui-Chih
       周姮吟 Heng-yin Chuo
       王也明 Ye-Ming Wang
       黄志明 Chih-ming Huang
       馮鳳珍 Rita Fung
       魏德圣 Te-Sheng Wei
       李欣芸 Cincin Lee
       黎锦光 Jinguang Li
       黄岳泰 Arthur Wong
       魏德圣 Te-Sheng Wei
       陈国富 Kuo-fu Chen
       文志明 Ze Ming Wen
       张世宏 Silver Cheung
       叶锦添 Timmy Yip
       迈克尔·格雷西 Michael Gracey
       梁小熊 Siu-Hung Leung
       杜笃之 Du-Che Tu
       王世伟 Patrick Wang
       汤湘竹 Shiang-Chu Tang

◎简  介
  由于两年前揭发同僚贪污,台北警官黄火土(梁家辉)被上级报复调入冷门的外事组工作,利益也曾连带受损的新同事对他怒言相向,加上妻子清芳(刘若英)受不了他长期不回家要求离婚,黄火土感觉他的世界正在逐渐四分五裂。                                    
                                就在此时,三宗受害者的身份并无关联的震惊了台湾社会的离奇命案发生,法医(杨贵媚)验尸发现他们都是因中一种神秘的黑霉菌产生幻觉而死,因为缺乏此方面的人才,当局从美国请来此种案例的侦办专家凯文莱特(David Morse)协助破案,黄火土重被任用。随着一桩令所有人都目瞪口呆的事实的被发现,一场围绕政治利益与民众利益的斗争也在黄火土和办案伙伴李丰博(戴立忍)及整个警察队伍之间展开。
  1. ##### MediaInfo ######
  2. General
  3. Unique ID                                : 38165666348499099931019072034894644459 (0x1CB670A1AA25F5E2370E6801B49604EB)
  4. Complete name                            : Double.Vision.2002.1080p.BluRay.DTS.2Audio.x265-10bit-CHDBits.mkv
  5. Format                                   : Matroska
  6. Format version                           : Version 4
  7. File size                                : 9.82 GiB
  8. Duration                                 : 1 h 53 min
  9. Overall bit rate                         : 12.4 Mb/s
  10. Movie name                               : Double Vision 2002 1080p BluRay DTS 2Audio x265-10bit-HDS
  11. Encoded date                             : UTC 2022-07-04 08:22:11
  12. Writing application                      : mkvmerge v67.0.0 ('Under Stars') 64-bit
  13. Writing library                          : libebml v1.4.2 + libmatroska v1.6.4
  14. Video
  15. ID                                       : 1
  16. Format                                   : HEVC
  17. Format/Info                              : High Efficiency Video Coding
  18. Format profile                           : Main 10@L5.1@High
  19. Codec ID                                 : V_MPEGH/ISO/HEVC
  20. Duration                                 : 1 h 53 min
  21. Bit rate                                 : 9 343 kb/s
  22. Width                                    : 1 920 pixels
  23. Height                                   : 800 pixels
  24. Display aspect ratio                     : 2.40:1
  25. Frame rate mode                          : Constant
  26. Frame rate                               : 23.976 (24000/1001/53354) FPS
  27. Color space                              : YUV
  28. Chroma subsampling                       : 4:2:0
  29. Bit depth                                : 10 bits
  30. Bits/(Pixel*Frame)                       : 0.254
  31. Stream size                              : 7.41 GiB (75%)
  32. Title                                    : meyu@HDSky
  33. Writing library                          : x265 - H.265/HEVC codec
  34. Default                                  : Yes
  35. Forced                                   : No
  36. Audio #1
  37. ID                                       : 2
  38. Format                                   : DTS
  39. Format/Info                              : Digital Theater Systems
  40. Codec ID                                 : A_DTS
  41. Duration                                 : 1 h 53 min
  42. Bit rate mode                            : Constant
  43. Bit rate                                 : 1 509 kb/s
  44. Channel(s)                               : 2 channels
  45. Channel layout                           : L R
  46. Sampling rate                            : 48.0 kHz
  47. Frame rate                               : 93.750 FPS (512 SPF)
  48. Bit depth                                : 24 bits
  49. Compression mode                         : Lossy
  50. Stream size                              : 1.20 GiB (12%)
  51. Title                                    : Cantonese
  52. Language                                 : Chinese
  53. Default                                  : Yes
  54. Forced                                   : No
  55. Audio #2
  56. ID                                       : 3
  57. Format                                   : DTS
  58. Format/Info                              : Digital Theater Systems
  59. Codec ID                                 : A_DTS
  60. Duration                                 : 1 h 53 min
  61. Bit rate mode                            : Constant
  62. Bit rate                                 : 1 509 kb/s
  63. Channel(s)                               : 2 channels
  64. Channel layout                           : L R
  65. Sampling rate                            : 48.0 kHz
  66. Frame rate                               : 93.750 FPS (512 SPF)
  67. Bit depth                                : 24 bits
  68. Compression mode                         : Lossy
  69. Stream size                              : 1.20 GiB (12%)
  70. Title                                    : Mandarin
  71. Language                                 : Chinese
  72. Default                                  : Yes
  73. Forced                                   : No
  74. Text #1
  75. ID                                       : 4
  76. Format                                   : PGS
  77. Muxing mode                              : zlib
  78. Codec ID                                 : S_HDMV/PGS
  79. Codec ID/Info                            : Picture based subtitle format used on BDs/HD-DVDs
  80. Duration                                 : 1 h 47 min
  81. Bit rate                                 : 17.7 kb/s
  82. Count of elements                        : 2052
  83. Stream size                              : 13.6 MiB (0%)
  84. Title                                    : CHS
  85. Language                                 : Chinese
  86. Default                                  : Yes
  87. Forced                                   : No
  88. Text #2
  89. ID                                       : 5
  90. Format                                   : PGS
  91. Muxing mode                              : zlib
  92. Codec ID                                 : S_HDMV/PGS
  93. Codec ID/Info                            : Picture based subtitle format used on BDs/HD-DVDs
  94. Duration                                 : 1 h 47 min
  95. Bit rate                                 : 18.1 kb/s
  96. Count of elements                        : 2052
  97. Stream size                              : 14.0 MiB (0%)
  98. Title                                    : CHT
  99. Language                                 : Chinese
  100. Default                                  : Yes
  101. Forced                                   : No
  102. Menu
  103. 00:00:00.000                             : en:第 01 章
  104. 00:11:37.906                             : en:第 02 章
  105. 00:22:48.242                             : en:第 03 章
  106. 00:33:46.316                             : en:第 04 章
  107. 00:45:11.500                             : en:第 05 章
  108. 00:56:39.187                             : en:第 06 章
  109. 01:08:11.004                             : en:第 07 章
  110. 01:19:23.008                             : en:第 08 章
  111. 01:30:38.516                             : en:第 09 章
  112. 01:41:53.983                             : en:第 10 章





此处一般会放置磁力链或种子下载链接,不过此链接需要注册会员才能看到,点击“立即注册”
磁力链下载【下载链接仅对注册会员开放,登陆后可见】
BT9527电影天堂 1、BT9527电影天堂提供的BT文件均来源于互联网抓取,只供网友学习交流、技术提升使用。
2、我们遵守BitTorrent点对点协议原则,任何版权问题请联系原资源发布商,我们不处理任何版权纠纷,谢谢!如有争议请联系邮箱:BT9527#hotmail.com(#换成@)
3、如果您发现某页面或地址有错误,请联系站长邮箱BT9527#hotmail.com(#换成@),我们会尽快处理。您的热心是对BT9527电影天堂最大的支持。
4、本站建议去正规影院观看电影以支持电影行业发展。
最新回复 (0)

你可以在 登录 or 注册 后,对此帖发表评论!

返回
发新帖