你的鸟儿会唱歌[中文字幕].And.Your.Bird.Can.Sing.2018.1080p.BluRay.DTS.x265-10bit-CHDBits 6.87GB

版主小s 1月前 258

✔资源类型:暂未分类   ✔电影年份:2018   ✔电影地区:日本   ✔电影分类:剧情

◎标  题 你的鸟儿会唱歌
◎译  名 函馆夜空更深蓝(港) / 你的鸟儿能歌唱 / And Your Bird Can Sing
◎片  名 きみの鳥はうたえる
◎年  代 2018
◎产  地 日本
◎类  别 剧情 / 爱情
◎语  言 日语
◎上映日期 2018-09-01(日本)
◎IMDb评分 6.7/10 (607人评价)
◎IMDb链接 https://www.imdb.com/title/tt6515458/
◎豆瓣评分 7.7/10 (19859人评价)
◎豆瓣链接 https://movie.douban.com/subject/26969120/
◎片  长 106分钟
◎导  演 三宅唱 Sho Miyake
◎编  剧 佐藤泰志 Yasushi Satô
       三宅唱 Sho Miyake
◎演  员 柄本佑 Tasuku Emoto
       染谷将太 Shôta Sometani
       石桥静河 Shizuka Ishibashi
       足立智充 Tomomitsu Adachi
       山本亚依 Ai Yamamoto
       渡边真起子 Makiko Watanabe
       萩原圣人 Masato Hagiwara
       四宫秀俊 Hidetoshi Shinomiya
       三宅唱 Sho Miyake

◎简  介
  在郊外一家书店打工的“我”,与“我”同住一屋的静雄,以及“我”的同事佐知子。往来间,佐知子与“我”渐生暧昧,静雄对佐知子亦暗生情愫……互为朋友和恋人的三个年轻人,和一段带着夏日燥动的肆意青春。
  1. ##### MediaInfo ######
  2. General
  3. Unique ID                                : 306002290459935457024503968107756945458 (0xE635E5BDA17EE87406978B1084FA8032)
  4. Complete name                            : And.Your.Bird.Can.Sing.2018.1080p.BluRay.DTS.x265-10bit-CHDBits.mkv
  5. Format                                   : Matroska
  6. Format version                           : Version 4
  7. File size                                : 6.87 GiB
  8. Duration                                 : 1 h 46 min
  9. Overall bit rate                         : 9 248 kb/s
  10. Movie name                               : And Your Bird Can Sing 2018 1080p BluRay DTS x265-10bit-HDS
  11. Encoded date                             : UTC 2022-07-04 04:36:56
  12. Writing application                      : mkvmerge v67.0.0 ('Under Stars') 64-bit
  13. Writing library                          : libebml v1.4.2 + libmatroska v1.6.4
  14. Video
  15. ID                                       : 1
  16. Format                                   : HEVC
  17. Format/Info                              : High Efficiency Video Coding
  18. Format profile                           : Main 10@L5.1@High
  19. Codec ID                                 : V_MPEGH/ISO/HEVC
  20. Duration                                 : 1 h 46 min
  21. Bit rate                                 : 7 725 kb/s
  22. Width                                    : 1 920 pixels
  23. Height                                   : 804 pixels
  24. Display aspect ratio                     : 2.40:1
  25. Frame rate mode                          : Constant
  26. Frame rate                               : 23.976 (24000/1001/53354) FPS
  27. Color space                              : YUV
  28. Chroma subsampling                       : 4:2:0
  29. Bit depth                                : 10 bits
  30. Bits/(Pixel*Frame)                       : 0.209
  31. Stream size                              : 5.73 GiB (84%)
  32. Title                                    : meyu@HDSky
  33. Writing library                          : x265 - H.265/HEVC codec
  34. Default                                  : Yes
  35. Forced                                   : No
  36. Audio
  37. ID                                       : 2
  38. Format                                   : DTS
  39. Format/Info                              : Digital Theater Systems
  40. Codec ID                                 : A_DTS
  41. Duration                                 : 1 h 46 min
  42. Bit rate mode                            : Constant
  43. Bit rate                                 : 1 509 kb/s
  44. Channel(s)                               : 6 channels
  45. Channel layout                           : C L R Ls Rs LFE
  46. Sampling rate                            : 48.0 kHz
  47. Frame rate                               : 93.750 FPS (512 SPF)
  48. Bit depth                                : 24 bits
  49. Compression mode                         : Lossy
  50. Stream size                              : 1.12 GiB (16%)
  51. Title                                    : Japanese
  52. Language                                 : Japanese
  53. Default                                  : Yes
  54. Forced                                   : No
  55. Text #1
  56. ID                                       : 3
  57. Format                                   : PGS
  58. Muxing mode                              : zlib
  59. Codec ID                                 : S_HDMV/PGS
  60. Codec ID/Info                            : Picture based subtitle format used on BDs/HD-DVDs
  61. Duration                                 : 1 h 40 min
  62. Bit rate                                 : 11.7 kb/s
  63. Count of elements                        : 1729
  64. Stream size                              : 8.41 MiB (0%)
  65. Title                                    : CHS
  66. Language                                 : Chinese
  67. Default                                  : Yes
  68. Forced                                   : No
  69. Text #2
  70. ID                                       : 4
  71. Format                                   : PGS
  72. Muxing mode                              : zlib
  73. Codec ID                                 : S_HDMV/PGS
  74. Codec ID/Info                            : Picture based subtitle format used on BDs/HD-DVDs
  75. Duration                                 : 1 h 40 min
  76. Bit rate                                 : 12.0 kb/s
  77. Count of elements                        : 1729
  78. Stream size                              : 8.61 MiB (0%)
  79. Title                                    : CHT
  80. Language                                 : Chinese
  81. Default                                  : Yes
  82. Forced                                   : No
  83. Menu
  84. 00:00:00.000                             : en:第 01 章
  85. 00:13:21.175                             : en:第 02 章
  86. 00:25:53.010                             : en:第 03 章
  87. 00:35:21.453                             : en:第 04 章
  88. 00:48:45.256                             : en:第 05 章
  89. 00:59:23.727                             : en:第 06 章
  90. 01:09:38.883                             : en:第 07 章
  91. 01:18:36.587                             : en:第 08 章
  92. 01:32:07.397                             : en:第 09 章
  93. 01:41:36.298                             : en:第 10 章





此处一般会放置磁力链或种子下载链接,不过此链接需要注册会员才能看到,点击“立即注册”
磁力链下载【下载链接仅对注册会员开放,登陆后可见】
BT9527电影天堂 1、BT9527电影天堂提供的BT文件均来源于互联网抓取,只供网友学习交流、技术提升使用。
2、我们遵守BitTorrent点对点协议原则,任何版权问题请联系原资源发布商,我们不处理任何版权纠纷,谢谢!如有争议请联系邮箱:BT9527#hotmail.com(#换成@)
3、如果您发现某页面或地址有错误,请联系站长邮箱BT9527#hotmail.com(#换成@),我们会尽快处理。您的热心是对BT9527电影天堂最大的支持。
4、本站建议去正规影院观看电影以支持电影行业发展。
最新回复 (0)

你可以在 登录 or 注册 后,对此帖发表评论!

返回
发新帖