楼下的房客[国语音轨/简繁英字幕].The.Tenants.Downstairs.2016.BluRay.1080p.x265.10bit-MiniHD 1.68GB

版主小s 1月前 229

✔资源类型:暂未分类   ✔电影年份:2016   ✔电影地区:台湾   ✔电影分类:剧情

◎标  题 楼下的房客
◎译  名 The Tenants Downstairs
◎片  名 樓下的房客
◎年  代 2016
◎产  地 中国台湾
◎类  别 剧情 / 悬疑 / 惊悚
◎语  言 汉语普通话
◎上映日期 2016-08-12(中国台湾) / 2016-06-30(台北电影节)
◎IMDb评分 5.6/10 (1087人评价)
◎IMDb链接 https://www.imdb.com/title/tt5735582/
◎豆瓣链接 https://movie.douban.com/subject/26575937/
◎片  长 115分钟

◎标  签 悬疑 / 惊悚 / 变态心理 / 犯罪 / 台湾 / 人性 / 心理 / 恐怖

◎简  介
    故事发生在一栋老式公寓内,房东(任达华 饰)贴出了招租启示,以极低的价格将公寓里的6间房租了出去,然而,天底下哪有白捡便宜的道理呢,被低价吸引而来的租客想要在这里生活,自然还要付出金钱之外的东西。                                    
                                  整天嬉皮笑脸的体育老师老张(庄凯勋 饰)、贪玩好色懒惰的废柴大学生伯彦(侯彦西 饰)、带着正在念四年级的女儿的单亲爸爸王先生(游安顺 饰)、拥有天使外貌魔鬼身材的陈小姐(李杏 饰)、同性恋情人令狐(森竣 饰)和郭力(李康生 饰)、神秘美女颖如(邵雨薇 饰),很快,6间房均迎来了它们的住客,等待着这些人的,除了崭新的生活外,还有房东给他们安排的针孔摄像机。
  1. ##### MediaInfo ######
  2. General
  3. Unique ID                                : 218478793536238028588621375167494303739 (0xA45D7C2D730FD5FB2943A712B3EF2FFB)
  4. Complete name                            : The.Tenants.Downstairs.2016.BluRay.1080p.x265.10bit-MiniHD.mkv
  5. Format                                   : Matroska
  6. Format version                           : Version 4
  7. File size                                : 1.68 GiB
  8. Duration                                 : 1 h 55 min
  9. Overall bit rate                         : 2 091 kb/s
  10. Encoded date                             : UTC 2018-03-12 17:11:33
  11. Writing application                      : mkvmerge v20.0.0 ('I Am The Sun') 64-bit
  12. Writing library                          : libebml v1.3.5 + libmatroska v1.4.8
  13. Video
  14. ID                                       : 5
  15. Format                                   : HEVC
  16. Format/Info                              : High Efficiency Video Coding
  17. Format profile                           : Main 10@L4@Main
  18. Codec ID                                 : V_MPEGH/ISO/HEVC
  19. Duration                                 : 1 h 55 min
  20. Bit rate                                 : 1 431 kb/s
  21. Width                                    : 1 920 pixels
  22. Height                                   : 800 pixels
  23. Display aspect ratio                     : 2.40:1
  24. Frame rate mode                          : Constant
  25. Frame rate                               : 24.000 FPS
  26. Color space                              : YUV
  27. Chroma subsampling                       : 4:2:0
  28. Bit depth                                : 10 bits
  29. Bits/(Pixel*Frame)                       : 0.039
  30. Stream size                              : 1.15 GiB (68%)
  31. Writing library                          : x265 2.7+1-2aa737a99f51:[Windows][GCC 7.3.0][64 bit] 10bit
  32. Encoding settings                        : cpuid=533541173503 / frame-threads=3 / numa-pools=8 / wpp / no-pmode / no-pme / no-psnr / no-ssim / log-level=2 / csv / csv-log-level=0 / input-csp=1 / input-res=1920x800 / interlace=0 / total-frames=166041 / level-idc=0 / high-tier=1 / uhd-bd=0 / ref=5 / no-allow-non-conformance / no-repeat-headers / annexb / no-aud / no-hrd / info / hash=0 / no-temporal-layers / no-open-gop / min-keyint=1 / keyint=360 / gop-lookahead=0 / bframes=9 / b-adapt=2 / b-pyramid / bframe-bias=0 / rc-lookahead=60 / lookahead-slices=4 / NTMzNTQ=uuDQuD2mJt9fsCf / scenecut=40 / radl=0 / no-intra-refresh / ctu=32 / min-cu-size=8 / rect / no-amp / max-tu-size=16 / tu-inter-depth=2 / tu-intra-depth=2 / limit-tu=4 / rdoq-level=1 / dynamic-rd=0.00 / ssim-rd / signhide / no-tskip / nr-intra=0 / nr-inter=0 / no-constrained-intra / no-strong-intra-smoothing / max-merge=3 / limit-refs=2 / limit-modes / me=3 / subme=5 / merange=25 / temporal-mvp / weightp / weightb / no-analyze-src-pics / deblock=-1:-1 / no-sao / no-sao-non-deblock / rd=4 / no-early-skip / rskip / no-fast-intra / no-tskip-fast / no-cu-lossless / b-intra / no-splitrd-skip / rdpenalty=1 / psy-rd=0.00 / psy-rdoq=5.00 / no-rd-refine / no-lossless / cbqpoffs=-2 / crqpoffs=-2 / rc=crf / crf=16.0 / qcomp=0.70 / qpstep=4 / stats-write=0 / stats-read=0 / ipratio=1.40 / pbratio=1.30 / aq-mode=2 / aq-strength=0.80 / cutree / zone-count=0 / no-strict-cbr / qg-size=16 / no-rc-grain / qpmax=69 / qpmin=0 / no-const-vbv / sar=0 / overscan=0 / videoformat=5 / range=0 / colorprim=1 / transfer=2 / colormatrix=2 / chromaloc=0 / display-window=0 / max-cll=0,0 / min-luma=0 / max-luma=1023 / log2-max-poc-lsb=8 / vui-timing-info / vui-hrd-info / slices=1 / no-opt-qp-pps / no-opt-ref-list-length-pps / no-multi-pass-opt-rps / scenecut-bias=0.05 / no-opt-cu-delta-qp / no-aq-motion / no-hdr / no-hdr-opt / no-dhdr10-opt / analysis-reuse-level=5 / scale-factor=0 / refine-intra=0 / refine-inter=0 / refine-mv=0 / no-limit-sao / ctu-info=0 / no-lowpass-dct / refine-mv-type=0 / copy-pic=1
  33. Language                                 : Chinese
  34. Default                                  : Yes
  35. Forced                                   : No
  36. Color range                              : Limited
  37. Color primaries                          : BT.709
  38. Audio
  39. ID                                       : 1
  40. Format                                   : AC-3
  41. Format/Info                              : Audio Coding 3
  42. Commercial name                          : Dolby Digital
  43. Codec ID                                 : A_AC3
  44. Duration                                 : 1 h 55 min
  45. Bit rate mode                            : Constant
  46. Bit rate                                 : 640 kb/s
  47. Channel(s)                               : 6 channels
  48. Channel layout                           : L R C LFE Ls Rs
  49. Sampling rate                            : 48.0 kHz
  50. Frame rate                               : 31.250 FPS (1536 SPF)
  51. Compression mode                         : Lossy
  52. Stream size                              : 528 MiB (31%)
  53. Title                                    : 国语
  54. Language                                 : Chinese
  55. Service kind                             : Complete Main
  56. Default                                  : Yes
  57. Forced                                   : No
  58. Text #1
  59. ID                                       : 2
  60. Format                                   : PGS
  61. Muxing mode                              : zlib
  62. Codec ID                                 : S_HDMV/PGS
  63. Codec ID/Info                            : Picture based subtitle format used on BDs/HD-DVDs
  64. Duration                                 : 1 h 45 min
  65. Bit rate                                 : 9 308 b/s
  66. Count of elements                        : 1039
  67. Stream size                              : 7.02 MiB (0%)
  68. Title                                    : 繁体
  69. Language                                 : Chinese
  70. Default                                  : Yes
  71. Forced                                   : No
  72. Text #2
  73. ID                                       : 3
  74. Format                                   : PGS
  75. Muxing mode                              : zlib
  76. Codec ID                                 : S_HDMV/PGS
  77. Codec ID/Info                            : Picture based subtitle format used on BDs/HD-DVDs
  78. Duration                                 : 1 h 45 min
  79. Bit rate                                 : 8 841 b/s
  80. Count of elements                        : 1039
  81. Stream size                              : 6.67 MiB (0%)
  82. Title                                    : 简体
  83. Language                                 : Chinese
  84. Default                                  : No
  85. Forced                                   : No
  86. Text #3
  87. ID                                       : 4
  88. Format                                   : PGS
  89. Muxing mode                              : zlib
  90. Codec ID                                 : S_HDMV/PGS
  91. Codec ID/Info                            : Picture based subtitle format used on BDs/HD-DVDs
  92. Duration                                 : 1 h 45 min
  93. Bit rate                                 : 23.0 kb/s
  94. Count of elements                        : 1048
  95. Stream size                              : 17.3 MiB (1%)
  96. Title                                    : 英文
  97. Language                                 : English
  98. Default                                  : No
  99. Forced                                   : No
  100. Menu
  101. 00:00:00.000                             : en:Chapter 01
  102. 00:17:01.208                             : en:Chapter 02
  103. 00:37:19.458                             : en:Chapter 03
  104. 00:54:13.416                             : en:Chapter 04
  105. 01:11:43.708                             : en:Chapter 05
  106. 01:33:58.958                             : en:Chapter 06





此处一般会放置磁力链或种子下载链接,不过此链接需要注册会员才能看到,点击“立即注册”
磁力链下载【下载链接仅对注册会员开放,登陆后可见】
BT9527电影天堂 1、BT9527电影天堂提供的BT文件均来源于互联网抓取,只供网友学习交流、技术提升使用。
2、我们遵守BitTorrent点对点协议原则,任何版权问题请联系原资源发布商,我们不处理任何版权纠纷,谢谢!如有争议请联系邮箱:BT9527#hotmail.com(#换成@)
3、如果您发现某页面或地址有错误,请联系站长邮箱BT9527#hotmail.com(#换成@),我们会尽快处理。您的热心是对BT9527电影天堂最大的支持。
4、本站建议去正规影院观看电影以支持电影行业发展。
最新回复 (0)

你可以在 登录 or 注册 后,对此帖发表评论!

返回
发新帖