梁山伯与祝英台[国语音轨/简繁英字幕].The.Love.Eterne.1963.BluRay.1080p.x265.10bit-MiniHD 5.46GB

版主小s 1月前 125

✔资源类型:暂未分类   ✔电影年份:更 早   ✔电影地区:香港   ✔电影分类:爱情

◎标  题 梁山伯与祝英台
◎译  名 The Love Eterne
◎片  名 梁山伯與祝英台
◎年  代 1963
◎产  地 中国香港
◎类  别 爱情 / 古装 / 戏曲
◎语  言 汉语普通话
◎上映日期 1963-04-03(中国香港)
◎IMDb评分 7.1/10 (448人评价)
◎IMDb链接 https://www.imdb.com/title/tt0057248/
◎豆瓣评分 8.5/10 (4443人评价)
◎豆瓣链接 https://movie.douban.com/subject/1438020/
◎片  长 122分钟
◎导  演 李翰祥 Han Hsiang Li
◎编  剧 李翰祥 Han Hsiang Li
◎演  员 凌波 Ivy Ling Po
       乐蒂 Betty Loh Ti
       任洁 Chieh Jen
       井淼 Miao Ching
       高宝树 Pao-Shu Kao
       石燕 Yen Shih
       罗马 Mar Lo
       蓝伟烈 Wei Lien Lan
       文秀 Hsiu Wen
       王冲 Chung Wang
       朱牧 Mu Zhu
       黄曼 Man Huang
       胡金铨 King Hu
       金天柱 Tien-Chu Chin
       童月娟 Yueh Chuan Tung
       陈燕燕 Yanyan Chen
       谷峰 Feng Ku
       欧阳莎菲 Sha-fei Ouyang
       杨志卿 Chih-Ching Yang
       乔庄 Chuang Chiao
       顾媚 Carrie Ku Mei
       关山 Shan Kwan
       蒋光超 Kuang Chao Chiang
       莫愁 Lily Mo Chou
       丁宁 Grace Ding Ning
       李香君 Li Hsiang Chun
       金汉 Han Chin
       李昆 Kun Li
       邵逸夫 Run Run Shaw
       周蓝萍 Lan-Ping Chow
       西本正 Tadashi Nishimoto
       陈芬 Chan Fen
       姜兴隆 Hsing-lung Chiang
       马斐 Fei Ma
       陈其锐 Qirui Chen
       刘贤辉
       方圆 Yuen Fong
       宋存寿 Tsun-Shou Sung
       田丰 Feng Tien
       胡金铨 King Hu
       王永华 Yung-Hua Wang
       闵大钧 Ming Ta-Chun

◎简  介
  东晋末年,某大户人家小姐祝英台(乐蒂 饰)渴望前往杭城求学,无奈父亲不允,以致英台茶不思饭不想,忧郁成疾。未久,英台想出妙计,假扮郎中阐明小姐病因,终于令父亲点头同意。在求学途中,假扮男装的英台巧遇风流倜傥的梁山伯(凌波 饰)。二人相谈投机,结伴通行。三年同窗,英台和山伯结为好友,情深意笃,在朝夕相处的过程中,英台心中渐渐萌生对山伯的爱意。无奈碍于身份,不忍道破实情。某日,英台为父亲苦苦催还,只得告假还家,由此演出十八相送的经典戏码。虽是这般试探与暗示,那愚讷的心上儿却没能了知心意,一别成了永远……                                    
                                本片根据中国经典民间故事改编,并荣获第二届金马奖最佳影片、最佳导演、最佳女主角(乐蒂)、最佳演技特别奖(凌波)等六项大奖。
  1. ##### MediaInfo ######
  2. General
  3. Unique ID                                : 233350933229428139800807993500333257452 (0xAF8DC146BE9B0774A1898565AD9032EC)
  4. Complete name                            : The.Love.Eterne.1963.BluRay.1080p.x265.10bit-MiniHD.mkv
  5. Format                                   : Matroska
  6. Format version                           : Version 4
  7. File size                                : 5.46 GiB
  8. Duration                                 : 2 h 5 min
  9. Overall bit rate                         : 6 207 kb/s
  10. Encoded date                             : UTC 2018-03-21 02:10:17
  11. Writing application                      : mkvmerge v20.0.0 ('I Am The Sun') 64-bit
  12. Writing library                          : libebml v1.3.5 + libmatroska v1.4.8
  13. Video
  14. ID                                       : 1
  15. Format                                   : HEVC
  16. Format/Info                              : High Efficiency Video Coding
  17. Format profile                           : Main 10@L4@Main
  18. Codec ID                                 : V_MPEGH/ISO/HEVC
  19. Duration                                 : 2 h 5 min
  20. Bit rate                                 : 5 539 kb/s
  21. Width                                    : 1 920 pixels
  22. Height                                   : 776 pixels
  23. Display aspect ratio                     : 2.474
  24. Frame rate mode                          : Constant
  25. Frame rate                               : 23.976 (24000/1001/53354) FPS
  26. Color space                              : YUV
  27. Chroma subsampling                       : 4:2:0
  28. Bit depth                                : 10 bits
  29. Bits/(Pixel*Frame)                       : 0.155
  30. Stream size                              : 4.87 GiB (89%)
  31. Writing library                          : x265 2.7+1-2aa737a99f51:[Windows][GCC 7.3.0][64 bit] 10bit
  32. Encoding settings                        : cpuid=533541173503 / frame-threads=3 / numa-pools=8 / wpp / no-pmode / no-pme / no-psnr / no-ssim / log-level=2 / csv / csv-log-level=0 / input-csp=1 / input-res=1920x776 / interlace=0 / total-frames=181096 / level-idc=0 / high-tier=1 / uhd-bd=0 / ref=5 / no-allow-non-conformance / no-repeat-headers / annexb / no-aud / no-hrd / info / hash=0 / no-temporal-layers / no-open-gop / min-keyint=1 / keyint=360 / gop-lookahead=0 / bframes=9 / b-adapt=2 / b-pyramid / bframe-bias=0 / rc-lookahead=60 / lookahead-slices=4 / NTMzNTQ=uuDQuD2mJt9fsCf / scenecut=40 / radl=0 / no-intra-refresh / ctu=32 / min-cu-size=8 / rect / no-amp / max-tu-size=16 / tu-inter-depth=2 / tu-intra-depth=2 / limit-tu=4 / rdoq-level=1 / dynamic-rd=0.00 / ssim-rd / signhide / no-tskip / nr-intra=0 / nr-inter=0 / no-constrained-intra / no-strong-intra-smoothing / max-merge=3 / limit-refs=2 / limit-modes / me=3 / subme=5 / merange=25 / temporal-mvp / weightp / weightb / no-analyze-src-pics / deblock=-1:-1 / no-sao / no-sao-non-deblock / rd=4 / no-early-skip / rskip / no-fast-intra / no-tskip-fast / no-cu-lossless / b-intra / no-splitrd-skip / rdpenalty=1 / psy-rd=0.00 / psy-rdoq=5.00 / no-rd-refine / no-lossless / cbqpoffs=-2 / crqpoffs=-2 / rc=crf / crf=16.0 / qcomp=0.70 / qpstep=4 / stats-write=0 / stats-read=0 / ipratio=1.40 / pbratio=1.30 / aq-mode=1 / aq-strength=0.80 / cutree / zone-count=0 / no-strict-cbr / qg-size=16 / no-rc-grain / qpmax=69 / qpmin=0 / no-const-vbv / sar=0 / overscan=0 / videoformat=5 / range=0 / colorprim=1 / transfer=2 / colormatrix=2 / chromaloc=0 / display-window=0 / max-cll=0,0 / min-luma=0 / max-luma=1023 / log2-max-poc-lsb=8 / vui-timing-info / vui-hrd-info / slices=1 / no-opt-qp-pps / no-opt-ref-list-length-pps / no-multi-pass-opt-rps / scenecut-bias=0.05 / no-opt-cu-delta-qp / no-aq-motion / no-hdr / no-hdr-opt / no-dhdr10-opt / analysis-reuse-level=5 / scale-factor=0 / refine-intra=0 / refine-inter=0 / refine-mv=0 / no-limit-sao / ctu-info=0 / no-lowpass-dct / refine-mv-type=0 / copy-pic=1
  33. Language                                 : Chinese
  34. Default                                  : Yes
  35. Forced                                   : No
  36. Color range                              : Limited
  37. Color primaries                          : BT.709
  38. Audio
  39. ID                                       : 2
  40. Format                                   : AC-3
  41. Format/Info                              : Audio Coding 3
  42. Commercial name                          : Dolby Digital
  43. Codec ID                                 : A_AC3
  44. Duration                                 : 2 h 5 min
  45. Bit rate mode                            : Constant
  46. Bit rate                                 : 640 kb/s
  47. Channel(s)                               : 6 channels
  48. Channel layout                           : L R C LFE Ls Rs
  49. Sampling rate                            : 48.0 kHz
  50. Frame rate                               : 31.250 FPS (1536 SPF)
  51. Compression mode                         : Lossy
  52. Stream size                              : 576 MiB (10%)
  53. Language                                 : Chinese
  54. Service kind                             : Complete Main
  55. Default                                  : Yes
  56. Forced                                   : No
  57. Text #1
  58. ID                                       : 3
  59. Format                                   : PGS
  60. Muxing mode                              : zlib
  61. Codec ID                                 : S_HDMV/PGS
  62. Codec ID/Info                            : Picture based subtitle format used on BDs/HD-DVDs
  63. Duration                                 : 2 h 3 min
  64. Bit rate                                 : 25.2 kb/s
  65. Count of elements                        : 1806
  66. Stream size                              : 22.3 MiB (0%)
  67. Title                                    : 繁体
  68. Language                                 : Chinese
  69. Default                                  : Yes
  70. Forced                                   : No
  71. Text #2
  72. ID                                       : 4
  73. Format                                   : PGS
  74. Muxing mode                              : zlib
  75. Codec ID                                 : S_HDMV/PGS
  76. Codec ID/Info                            : Picture based subtitle format used on BDs/HD-DVDs
  77. Duration                                 : 2 h 3 min
  78. Bit rate                                 : 22.7 kb/s
  79. Count of elements                        : 1806
  80. Stream size                              : 20.1 MiB (0%)
  81. Title                                    : 简体
  82. Language                                 : Chinese
  83. Default                                  : No
  84. Forced                                   : No
  85. Text #3
  86. ID                                       : 5
  87. Format                                   : PGS
  88. Muxing mode                              : zlib
  89. Codec ID                                 : S_HDMV/PGS
  90. Codec ID/Info                            : Picture based subtitle format used on BDs/HD-DVDs
  91. Duration                                 : 2 h 3 min
  92. Bit rate                                 : 24.8 kb/s
  93. Count of elements                        : 1806
  94. Stream size                              : 21.9 MiB (0%)
  95. Title                                    : 英文
  96. Language                                 : English
  97. Default                                  : No
  98. Forced                                   : No
  99. Menu
  100. 00:00:00.000                             : en:Chapter 01
  101. 00:12:33.002                             : en:Chapter 02
  102. 00:19:59.198                             : en:Chapter 03
  103. 00:36:52.126                             : en:Chapter 04
  104. 00:42:45.271                             : en:Chapter 05
  105. 00:44:58.987                             : en:Chapter 06
  106. 00:47:46.738                             : en:Chapter 07
  107. 00:51:02.851                             : en:Chapter 08
  108. 00:55:02.007                             : en:Chapter 09
  109. 00:58:01.102                             : en:Chapter 10
  110. 01:02:05.263                             : en:Chapter 11
  111. 01:04:22.525                             : en:Chapter 12
  112. 01:13:48.006                             : en:Chapter 13
  113. 01:28:51.451                             : en:Chapter 14
  114. 01:31:43.331                             : en:Chapter 15
  115. 01:33:25.057                             : en:Chapter 16
  116. 01:34:40.966                             : en:Chapter 17
  117. 01:38:55.763                             : en:Chapter 18
  118. 01:49:21.596                             : en:Chapter 19
  119. 01:56:23.351                             : en:Chapter 20
  120. 01:57:58.571                             : en:Chapter 21
  121. 02:04:05.104                             : en:Chapter 22





此处一般会放置磁力链或种子下载链接,不过此链接需要注册会员才能看到,点击“立即注册”
磁力链下载【下载链接仅对注册会员开放,登陆后可见】
BT9527电影天堂 1、BT9527电影天堂提供的BT文件均来源于互联网抓取,只供网友学习交流、技术提升使用。
2、我们遵守BitTorrent点对点协议原则,任何版权问题请联系原资源发布商,我们不处理任何版权纠纷,谢谢!如有争议请联系邮箱:BT9527#hotmail.com(#换成@)
3、如果您发现某页面或地址有错误,请联系站长邮箱BT9527#hotmail.com(#换成@),我们会尽快处理。您的热心是对BT9527电影天堂最大的支持。
4、本站建议去正规影院观看电影以支持电影行业发展。
最新回复 (0)

你可以在 登录 or 注册 后,对此帖发表评论!

返回
发新帖