花牌情缘 下之句[中文字幕].Chihayafuru.Part.II.2016.1080p.BluRay.HEVC.10bit 2.38GB

版主小s 1月前 308

✔资源类型:暂未分类   ✔电影年份:2016   ✔电影地区:日本   ✔电影分类:剧情

◎标  题 花牌情缘 下之句
◎译  名 Chihayafuru Part II / 花牌情缘 真人版下
◎片  名 ちはやふる 下の句
◎年  代 2016
◎产  地 日本
◎类  别 剧情 / 喜剧 / 爱情
◎语  言 日语
◎上映日期 2016-04-29(日本)
◎IMDb评分 6.9/10 (879人评价)
◎IMDb链接 https://www.imdb.com/title/tt4802214/
◎豆瓣评分 7.3/10 (11824人评价)
◎豆瓣链接 https://movie.douban.com/subject/26430669/
◎片  长 103分钟
◎导  演 小泉德宏 Norihiro Koizumi
◎编  剧 末次由纪 Yuki Suetsugu
       小泉德宏 Norihiro Koizumi
◎演  员 广濑铃 Suzu Hirose
       野村周平 Shuhei Nomura
       新田真剑佑 Mackenyu Arata
       上白石萌音 Mone Kamishiraishi
       矢本悠马 Yuma Yamoto
       森永悠希 Yuki Morinaga
       清水寻也 Hiroya Shimizu
       坂口涼太郎 Ryotaro Sakaguchi
       松冈茉优 Mayu Matsuoka
       松田美由纪 Miyuki Matsuda
       国村隼 Jun Kunimura
       久家心 Kokoro Kuge

◎简  介
  历经了多少挫折和辛酸,成立才刚刚一年的都立瑞泽高中竞技花牌部终于有幸要走向全国大赛的会场。借此机缘,绫濑千早(广濑丝丝 饰)也与儿时的好友绵谷新(真剑佑 饰)完成了久违的会面。只不过由于作为精神支柱的爷爷的去世,绵谷似乎丧失了前进的勇气和目标,早已远离花牌赛场。为他的状态担忧的还有绵谷宿命的强敌——最强女王的若宫诗畅(松冈茉优 饰)。为了打败女王,千早独自展开练习,不知不觉中却与大江奏(上白石萌音 饰)、西田优征(矢本悠马 饰)、驹野勉(森永悠希 饰)、真岛太一(野村周平 饰)等伙伴疏远了距离。大赛在即,少男少女们即将度过一个刻骨铭心的夏天……                                    
                                本片根据末次由纪的同名漫画改编。
  1. ##### MediaInfo ######
  2. General
  3. Unique ID                                : 276846871195828069410204337957722936297 (0xD046C496B4D2373CFD1EB59E837C53E9)
  4. Complete name                            : 花牌情缘.Chihayafuru.Part.II.2016.1080p.BluRay.HEVC.10bit.mkv
  5. Format                                   : Matroska
  6. Format version                           : Version 4
  7. File size                                : 2.38 GiB
  8. Duration                                 : 1 h 42 min
  9. Overall bit rate                         : 3 323 kb/s
  10. Encoded date                             : UTC 2018-02-01 00:27:37
  11. Writing application                      : mkvmerge v20.0.0 ('I Am The Sun') 64-bit
  12. Writing library                          : libebml v1.3.5 + libmatroska v1.4.8
  13. Cover                                    : Yes
  14. Attachments                              : cover.jpg / DFPHuaZongW5-B5 1.0.2005.12.28.ttf / 方正中倩_GBK.ttf / 汉仪秀英体繁.ttf
  15. Video
  16. ID                                       : 1
  17. Format                                   : HEVC
  18. Format/Info                              : High Efficiency Video Coding
  19. Format profile                           : Main 10@L4@High
  20. Codec ID                                 : V_MPEGH/ISO/HEVC
  21. Duration                                 : 1 h 42 min
  22. Bit rate                                 : 2 974 kb/s
  23. Width                                    : 1 920 pixels
  24. Height                                   : 800 pixels
  25. Display aspect ratio                     : 2.40:1
  26. Frame rate mode                          : Constant
  27. Frame rate                               : 29.970 (30000/1001/53354) FPS
  28. Color space                              : YUV
  29. Chroma subsampling                       : 4:2:0
  30. Bit depth                                : 10 bits
  31. Bits/(Pixel*Frame)                       : 0.065
  32. Stream size                              : 2.13 GiB (89%)
  33. Writing library                          : x265 2.6+32-b763c22920f6:[Windows][MSVC 1912][64 bit] 10bit
  34. Encoding settings                        : cpuid=533541173503 / frame-threads=4 / numa-pools=16 / wpp / no-pmode / no-pme / no-psnr / no-ssim / log-level=2 / input-csp=1 / input-res=1920x800 / interlace=0 / total-frames=0 / level-idc=0 / high-tier=1 / uhd-bd=0 / ref=4 / no-allow-non-conformance / no-repeat-headers / annexb / no-aud / no-hrd / info / hash=0 / no-temporal-layers / no-open-gop / min-keyint=1 / keyint=600 / gop-lookahead=0 / bframes=6 / b-adapt=2 / b-pyramid / bframe-bias=0 / rc-lookahead=30 / lookahead-slices=4 / NTMzNTQ=uuDQuD2mJt9fsCf / scenecut=40 / radl=0 / no-intra-refresh / ctu=64 / min-cu-size=8 / no-rect / no-amp / max-tu-size=32 / tu-inter-depth=2 / tu-intra-depth=2 / limit-tu=4 / rdoq-level=2 / dynamic-rd=0.00 / no-ssim-rd / signhide / no-tskip / nr-intra=0 / nr-inter=0 / no-constrained-intra / strong-intra-smoothing / max-merge=3 / limit-refs=2 / limit-modes / me=3 / subme=3 / merange=44 / temporal-mvp / weightp / weightb / no-analyze-src-pics / deblock=0:0 / no-sao / no-sao-non-deblock / rd=4 / no-early-skip / rskip / no-fast-intra / no-tskip-fast / no-cu-lossless / b-intra / no-splitrd-skip / rdpenalty=0 / psy-rd=3.00 / psy-rdoq=2.00 / no-rd-refine / no-lossless / cbqpoffs=0 / crqpoffs=0 / rc=crf / crf=21.0 / qcomp=0.65 / qpstep=4 / stats-write=0 / stats-read=0 / vbv-maxrate=21000 / vbv-bufsize=27000 / vbv-init=0.9 / crf-max=0.0 / crf-min=0.0 / ipratio=1.40 / pbratio=1.30 / aq-mode=3 / aq-strength=0.80 / cutree / zone-count=0 / no-strict-cbr / qg-size=32 / no-rc-grain / qpmax=33 / qpmin=0 / no-const-vbv / sar=0 / overscan=0 / videoformat=5 / range=0 / colorprim=1 / transfer=2 / colormatrix=2 / chromaloc=0 / display-window=0 / max-cll=0,0 / min-luma=0 / max-luma=1023 / log2-max-poc-lsb=8 / vui-timing-info / vui-hrd-info / slices=1 / no-opt-qp-pps / no-opt-ref-list-length-pps / no-multi-pass-opt-rps / scenecut-bias=0.05 / no-opt-cu-delta-qp / no-aq-motion / no-hdr / no-hdr-opt / no-dhdr10-opt / analysis-reuse-level=5 / scale-factor=0 / refine-intra=0 / refine-inter=0 / refine-mv=0 / no-limit-sao / ctu-info=0 / no-lowpass-dct / refine-mv-type=0 / copy-pic=1
  35. Default                                  : Yes
  36. Forced                                   : No
  37. Color range                              : Limited
  38. Color primaries                          : BT.709
  39. Audio
  40. ID                                       : 2
  41. Format                                   : Opus
  42. Codec ID                                 : A_OPUS
  43. Duration                                 : 1 h 42 min
  44. Bit rate                                 : 330 kb/s
  45. Channel(s)                               : 6 channels
  46. Channel layout                           : L R C Ls Rs Cb LFE
  47. Sampling rate                            : 48.0 kHz
  48. Frame rate                               : 50.000 FPS (960 SPF)
  49. Compression mode                         : Lossy
  50. Stream size                              : 241 MiB (10%)
  51. Language                                 : Japanese
  52. Default                                  : Yes
  53. Forced                                   : No
  54. Text
  55. ID                                       : 3
  56. Format                                   : ASS
  57. Codec ID                                 : S_TEXT/ASS
  58. Codec ID/Info                            : Advanced Sub Station Alpha
  59. Duration                                 : 1 h 42 min
  60. Bit rate                                 : 83 b/s
  61. Count of elements                        : 1231
  62. Compression mode                         : Lossless
  63. Stream size                              : 62.3 KiB (0%)
  64. Language                                 : Chinese
  65. Default                                  : Yes
  66. Forced                                   : No
  67. Menu
  68. 00:00:00.000                             : en:00:00:00.000
  69. 00:12:22.742                             : en:00:12:22.742
  70. 00:18:58.512                             : en:00:18:58.512
  71. 00:21:29.204                             : en:00:21:29.204
  72. 00:27:34.402                             : en:00:27:34.402
  73. 00:34:43.623                             : en:00:34:43.623
  74. 00:44:40.636                             : en:00:44:40.636
  75. 00:52:25.851                             : en:00:52:25.851
  76. 00:56:23.713                             : en:00:56:23.713
  77. 01:02:18.818                             : en:01:02:18.818
  78. 01:14:11.363                             : en:01:14:11.363
  79. 01:18:20.946                             : en:01:18:20.946
  80. 01:30:58.703                             : en:01:30:58.703
  81. 01:35:25.177                             : en:01:35:25.177



此处一般会放置磁力链或种子下载链接,不过此链接需要注册会员才能看到,点击“立即注册”
磁力链下载【下载链接仅对注册会员开放,登陆后可见】
BT9527电影天堂 1、BT9527电影天堂提供的BT文件均来源于互联网抓取,只供网友学习交流、技术提升使用。
2、我们遵守BitTorrent点对点协议原则,任何版权问题请联系原资源发布商,我们不处理任何版权纠纷,谢谢!如有争议请联系邮箱:BT9527#hotmail.com(#换成@)
3、如果您发现某页面或地址有错误,请联系站长邮箱BT9527#hotmail.com(#换成@),我们会尽快处理。您的热心是对BT9527电影天堂最大的支持。
4、本站建议去正规影院观看电影以支持电影行业发展。
最新回复 (0)

你可以在 登录 or 注册 后,对此帖发表评论!

返回
发新帖