桃姐[国粤多音轨/简繁英字幕].A.Simple.Life.2011.BluRay.1080p.x265.10bit.2Audios-MiniHD 5.55GB

版主小s 1月前 167

✔资源类型:暂未分类   ✔电影年份:2011   ✔电影地区:香港   ✔电影分类:剧情

◎标  题 桃姐
◎译  名 A Simple Life
◎年  代 2011
◎产  地 中国香港
◎类  别 剧情 / 家庭
◎语  言 英语 / 汉语普通话 / 粤语
◎上映日期 2012-03-08(中国大陆) / 2012-03-09(中国香港) / 2011-09-05(威尼斯电影节)
◎IMDb评分 7.5/10 (5804人评价)
◎IMDb链接 https://www.imdb.com/title/tt2008006/
◎豆瓣评分 8.3/10 (294601人评价)
◎豆瓣链接 https://movie.douban.com/subject/5977835/
◎片  长 118分钟
◎导  演 许鞍华 Ann Hui
◎编  剧 陈淑贤 Susan Chan
       李恩霖 Roger Lee
       陈淑娴
◎演  员 叶德娴 Deanie Ip
       刘德华 Andy Lau
       秦海璐 Hailu Qin
       秦沛 Paul Chun
       黄秋生 Anthony Wong Chau-Sang
       王馥荔 Fuli Wang
       朱慧敏 Queenie Chu
       江美仪 Elena Kong
       罗兰 Lan Law
       谭炳文 Ping-Man Tam
       梁天 Tin Leung
       宫雪花 Xuehua Gong
       徐克 Hark Tsui
       洪金宝 Sammo Hung Kam-Bo
       于冬 Dong Yu
       宁浩 Hao Ning
       刘伟恒 Wai-Hang Lau
       刘国昌 Lawrence Ah Mon
       刘伟强 Andrew Lau
       詹瑞文 Sui-man Chim
       许碧姬 Bobo Hoi Bik Gei
       杨颖 Angelababy
       冯友薇
       曹冀鲁 Jilu Cao
       陈桂芬 Brenda Chan
       林以诺 Lam Yee Lok
       麦润寿 Francis Mak
       关锦鹏 Stanley Kwan
       陈智燊 Jason Chan
       岑建勋 John Sham
       许素莹 So-ying Hui
       邹文怀 Raymond Chow
       林二汶 Eman Lam
       林家栋 Ka Tung Lam
       刘德华 Andy Lau
       林炳坤 Bingkun Lin
       林明杰 Eric Lin
       陈佩华 Jessica Chan Pooi-Wa
       于冬 Dong Yu
       许鞍华 Ann Hui
       宋岱 Dai Song
       余力为 Nelson Yu Lik-wai
       潘燚森 Albert Poon
       汤湘竹 Shiang-Chu Tang
       黄志明 Wong Chi-Ming

◎简  介
  桃姐(叶德娴 饰)是侍候了李家数十年的老佣人,把第二代的少爷罗杰(刘德华 饰)抚养成人。罗杰从事电影制片人,五十多岁了仍然独身,而桃姐也继续照顾罗杰,成为习惯……一日,桃姐如常到街市买菜,回寓所煲汤、做好满桌的饭菜,在等待从内地出差回家的罗杰,桃姐看着窗外的街景打发时间 ,不知不觉间却竟昏迷在地上……桃姐醒来时发现自己身在医院,桃姐是中风了!一边手臂不能活动自如,必须利用物理治疗尽量恢复活动能力。                                       
                                    罗杰在百忙工作中为桃姐找合适老人院,期间巧遇昔日电影拍摄认识的草蜢哥(黄秋生 饰),桃姐出院来到老人院,环境陌生,院友怪异,桃姐强装镇定。罗杰工余常到老人院探桃姐,主仆闲话家常一如母子,仍保持互相揶揄调侃习惯,桃姐嘴硬心甜,院友羡慕。                                       
                                    罗杰特意带桃姐参加电影首映礼,桃姐首次刻意打扮准备,取收藏已久的名贵衣服出发赴会;首映礼上桃姐大开眼界,更终有机会见到电影...
  1. ##### MediaInfo ######
  2. General
  3. Unique ID                                : 109533777184360275334354575340762561992 (0x52677029F36DFAC03B1779E6C29BFDC8)
  4. Complete name                            : A.Simple.Life.2011.BluRay.1080p.x265.10bit.2Audios-MiniHD.mkv
  5. Format                                   : Matroska
  6. Format version                           : Version 4
  7. File size                                : 5.55 GiB
  8. Duration                                 : 1 h 58 min
  9. Overall bit rate                         : 6 715 kb/s
  10. Encoded date                             : UTC 2018-02-19 13:43:45
  11. Writing application                      : mkvmerge v20.0.0 ('I Am The Sun') 64-bit
  12. Writing library                          : libebml v1.3.5 + libmatroska v1.4.8
  13. Video
  14. ID                                       : 1
  15. Format                                   : HEVC
  16. Format/Info                              : High Efficiency Video Coding
  17. Format profile                           : Main 10@L4@High
  18. Codec ID                                 : V_MPEGH/ISO/HEVC
  19. Duration                                 : 1 h 58 min
  20. Bit rate                                 : 5 396 kb/s
  21. Width                                    : 1 920 pixels
  22. Height                                   : 1 040 pixels
  23. Display aspect ratio                     : 1.85:1
  24. Frame rate mode                          : Constant
  25. Frame rate                               : 24.000 FPS
  26. Color space                              : YUV
  27. Chroma subsampling                       : 4:2:0
  28. Bit depth                                : 10 bits
  29. Bits/(Pixel*Frame)                       : 0.113
  30. Stream size                              : 4.46 GiB (80%)
  31. Title                                    : 视频
  32. Default                                  : Yes
  33. Forced                                   : No
  34. Color range                              : Limited
  35. Color primaries                          : BT.709
  36. Transfer characteristics                 : BT.709
  37. Matrix coefficients                      : BT.709
  38. Audio #1
  39. ID                                       : 2
  40. Format                                   : AC-3
  41. Format/Info                              : Audio Coding 3
  42. Commercial name                          : Dolby Digital
  43. Codec ID                                 : A_AC3
  44. Duration                                 : 1 h 58 min
  45. Bit rate mode                            : Constant
  46. Bit rate                                 : 640 kb/s
  47. Channel(s)                               : 6 channels
  48. Channel layout                           : L R C LFE Ls Rs
  49. Sampling rate                            : 48.0 kHz
  50. Frame rate                               : 31.250 FPS (1536 SPF)
  51. Compression mode                         : Lossy
  52. Stream size                              : 541 MiB (10%)
  53. Title                                    : 粤语
  54. Language                                 : Chinese
  55. Service kind                             : Complete Main
  56. Default                                  : Yes
  57. Forced                                   : No
  58. Audio #2
  59. ID                                       : 3
  60. Format                                   : AC-3
  61. Format/Info                              : Audio Coding 3
  62. Commercial name                          : Dolby Digital
  63. Codec ID                                 : A_AC3
  64. Duration                                 : 1 h 58 min
  65. Bit rate mode                            : Constant
  66. Bit rate                                 : 640 kb/s
  67. Channel(s)                               : 6 channels
  68. Channel layout                           : L R C LFE Ls Rs
  69. Sampling rate                            : 48.0 kHz
  70. Frame rate                               : 31.250 FPS (1536 SPF)
  71. Compression mode                         : Lossy
  72. Stream size                              : 541 MiB (10%)
  73. Title                                    : 国语
  74. Language                                 : Chinese
  75. Service kind                             : Complete Main
  76. Default                                  : No
  77. Forced                                   : No
  78. Text #1
  79. ID                                       : 4
  80. Format                                   : PGS
  81. Muxing mode                              : zlib
  82. Codec ID                                 : S_HDMV/PGS
  83. Codec ID/Info                            : Picture based subtitle format used on BDs/HD-DVDs
  84. Duration                                 : 1 h 53 min
  85. Bit rate                                 : 36.4 kb/s
  86. Count of elements                        : 3110
  87. Stream size                              : 29.5 MiB (1%)
  88. Title                                    : 繁中
  89. Language                                 : Chinese
  90. Default                                  : Yes
  91. Forced                                   : No
  92. Text #2
  93. ID                                       : 5
  94. Format                                   : PGS
  95. Muxing mode                              : zlib
  96. Codec ID                                 : S_HDMV/PGS
  97. Codec ID/Info                            : Picture based subtitle format used on BDs/HD-DVDs
  98. Duration                                 : 1 h 53 min
  99. Bit rate                                 : 33.0 kb/s
  100. Count of elements                        : 3110
  101. Stream size                              : 26.7 MiB (0%)
  102. Title                                    : 简中
  103. Language                                 : Chinese
  104. Default                                  : No
  105. Forced                                   : No
  106. Text #3
  107. ID                                       : 6
  108. Format                                   : PGS
  109. Muxing mode                              : zlib
  110. Codec ID                                 : S_HDMV/PGS
  111. Codec ID/Info                            : Picture based subtitle format used on BDs/HD-DVDs
  112. Duration                                 : 1 h 53 min
  113. Bit rate                                 : 33.0 kb/s
  114. Count of elements                        : 3109
  115. Stream size                              : 26.8 MiB (0%)
  116. Title                                    : 英语
  117. Language                                 : English
  118. Default                                  : No
  119. Forced                                   : No
  120. Menu
  121. 00:00:00.000                             : en:Chapter 01
  122. 00:04:37.167                             : en:Chapter 02
  123. 00:10:09.292                             : en:Chapter 03
  124. 00:16:36.042                             : en:Chapter 04
  125. 00:21:11.875                             : en:Chapter 05
  126. 00:26:22.500                             : en:Chapter 06
  127. 00:33:25.542                             : en:Chapter 07
  128. 00:40:59.250                             : en:Chapter 08
  129. 00:47:24.792                             : en:Chapter 09
  130. 00:55:50.042                             : en:Chapter 10
  131. 01:02:26.708                             : en:Chapter 11
  132. 01:06:17.458                             : en:Chapter 12
  133. 01:14:51.583                             : en:Chapter 13
  134. 01:18:50.875                             : en:Chapter 14
  135. 01:22:52.875                             : en:Chapter 15
  136. 01:32:44.875                             : en:Chapter 16
  137. 01:36:45.250                             : en:Chapter 17
  138. 01:41:07.875                             : en:Chapter 18
  139. 01:48:40.583                             : en:Chapter 19
  140. 01:54:39.208                             : en:Chapter 20
  141. 01:58:14.542                             : en:Chapter 21





此处一般会放置磁力链或种子下载链接,不过此链接需要注册会员才能看到,点击“立即注册”
磁力链下载【下载链接仅对注册会员开放,登陆后可见】
BT9527电影天堂 1、BT9527电影天堂提供的BT文件均来源于互联网抓取,只供网友学习交流、技术提升使用。
2、我们遵守BitTorrent点对点协议原则,任何版权问题请联系原资源发布商,我们不处理任何版权纠纷,谢谢!如有争议请联系邮箱:BT9527#hotmail.com(#换成@)
3、如果您发现某页面或地址有错误,请联系站长邮箱BT9527#hotmail.com(#换成@),我们会尽快处理。您的热心是对BT9527电影天堂最大的支持。
4、本站建议去正规影院观看电影以支持电影行业发展。
最新回复 (0)

你可以在 登录 or 注册 后,对此帖发表评论!

返回
发新帖