柔道龙虎榜[国粤多音轨/繁英字幕].Throw.Down.2004.BluRay.1080p.x265.10bit.2Audio-MiniHD 3.84GB

版主小s 1月前 110

✔资源类型:暂未分类   ✔电影年份:更 早   ✔电影地区:香港   ✔电影分类:剧情

◎标  题 柔道龙虎榜
◎译  名 Throw Down
◎年  代 2004
◎产  地 中国香港
◎类  别 剧情 / 动作
◎语  言 粤语 / 普通话
◎上映日期 2004-07-08(中国香港)
◎IMDb评分 6.8/10 (1831人评价)
◎IMDb链接 https://www.imdb.com/title/tt0415380/
◎豆瓣评分 7.6/10 (30745人评价)
◎豆瓣链接 https://movie.douban.com/subject/1308796/
◎片  长 95 分钟
◎导  演 杜琪峰 Johnnie To
◎编  剧 欧健儿 Kin-Yee Au
       游乃海 Nai-Hoi Yau
       叶天成 Tin-Shing Yip
◎演  员 古天乐 Louis Koo
       郭富城 Aaron Kwok
       应采儿 Cherrie Ying
       梁家辉 Tony Leung
       陈小春 Jordan Chan
       张兆辉 Siu-Fai Cheung
       蔡一智 Calvin Choi
       卢海鹏 Hoi-Pang Lo
       高捷 Jack Kao
       黄华和 Wah Wo Wong
       元彬 Bun Yuen
       钱荣威 Wing-Wai Chin
       区瑞强 Albert Au
       李海涛 Haitao Li
       林炳坤 Bingkun Lin
       杜琪峰 Johnnie To
       向华强 Charles Heung
       钱荣威 Wing-Wai Chin
       丁云山 Wan San Ding
       金培达 Peter Kam
       郑兆强 Siu-keung Cheng
       大卫·李察森 David M. Richardson
       张世杰 Stanley Cheung
       文润铃 Yun-Ling Man
       陈伟雄 Phat Chan
       罗永昌 Wing-cheong Law
       马文现 Stephen Ma
       罗子威 Chi Wai Law
       元彬 Bun Yuen

◎标  签 杜琪峰 / 香港 / 银河映像 / 古天乐 / 香港电影 / 动作 / 郭富城 / 梁家辉

◎简  介
  曾经号称“柔道小金刚”的司徒宝(古天乐饰),曾是一名高手,如今放弃了柔道,已沦落成债务缠身、嗜赌酗酒的堕落混混。                                    
                                新一届的柔道冠军Tony(郭富城饰)慕名而来,直指司徒宝挑战,试图一较高下。宿敌辣手李阿刚(梁家辉饰)又因当年一场未完的比赛,也找上门来要和司徒宝决一雌雄。                                    
                                结果Tony和司徒宝成为好友,台湾来的靓女小梦(应采儿饰)一心想当歌星,却险遭暗算,为实现理想屡吃尽苦头的也希望司徒宝能重燃斗志,但真正令其发愤的却是年迈师傅(卢海鹏饰)的战死。                                    
                                到底是有什么隐痛让司徒宝自甘沉沦?重寻对柔道信心和热爱的他,是否能够打败对手?
  1. ##### MediaInfo ######
  2. General
  3. Unique ID                                : 187287417452999588374710869365480078944 (0x8CE63E9AB216CE45E9017B2EF5BDBE60)
  4. Complete name                            : Throw.Down.2004.BluRay.1080p.x265.10bit.2Audio-MiniHD.mkv
  5. Format                                   : Matroska
  6. Format version                           : Version 4
  7. File size                                : 3.84 GiB
  8. Duration                                 : 1 h 34 min
  9. Overall bit rate                         : 5 787 kb/s
  10. Encoded date                             : UTC 2018-03-06 16:35:45
  11. Writing application                      : mkvmerge v20.0.0 ('I Am The Sun') 64-bit
  12. Writing library                          : libebml v1.3.5 + libmatroska v1.4.8
  13. Video
  14. ID                                       : 1
  15. Format                                   : HEVC
  16. Format/Info                              : High Efficiency Video Coding
  17. Format profile                           : Main 10@L4@Main
  18. Codec ID                                 : V_MPEGH/ISO/HEVC
  19. Duration                                 : 1 h 34 min
  20. Bit rate                                 : 4 392 kb/s
  21. Width                                    : 1 920 pixels
  22. Height                                   : 792 pixels
  23. Display aspect ratio                     : 2.40:1
  24. Frame rate mode                          : Constant
  25. Frame rate                               : 24.000 FPS
  26. Color space                              : YUV
  27. Chroma subsampling                       : 4:2:0
  28. Bit depth                                : 10 bits
  29. Bits/(Pixel*Frame)                       : 0.120
  30. Stream size                              : 2.91 GiB (76%)
  31. Writing library                          : x265 2.7+1-2aa737a99f51:[Windows][GCC 7.3.0][64 bit] 10bit
  32. Encoding settings                        : cpuid=533541173503 / frame-threads=3 / numa-pools=8 / wpp / no-pmode / no-pme / no-psnr / no-ssim / log-level=2 / csv / csv-log-level=0 / input-csp=1 / input-res=1920x792 / interlace=0 / total-frames=136743 / level-idc=0 / high-tier=1 / uhd-bd=0 / ref=5 / no-allow-non-conformance / no-repeat-headers / annexb / no-aud / no-hrd / info / hash=0 / no-temporal-layers / no-open-gop / min-keyint=1 / keyint=360 / gop-lookahead=0 / bframes=9 / b-adapt=2 / b-pyramid / bframe-bias=0 / rc-lookahead=60 / lookahead-slices=4 / NTMzNTQ=uuDQuD2mJt9fsCf / scenecut=40 / radl=0 / no-intra-refresh / ctu=32 / min-cu-size=8 / rect / no-amp / max-tu-size=16 / tu-inter-depth=2 / tu-intra-depth=2 / limit-tu=4 / rdoq-level=1 / dynamic-rd=0.00 / ssim-rd / signhide / no-tskip / nr-intra=0 / nr-inter=0 / no-constrained-intra / no-strong-intra-smoothing / max-merge=3 / limit-refs=2 / limit-modes / me=3 / subme=5 / merange=25 / temporal-mvp / weightp / weightb / no-analyze-src-pics / deblock=-1:-1 / no-sao / no-sao-non-deblock / rd=4 / no-early-skip / rskip / no-fast-intra / no-tskip-fast / no-cu-lossless / b-intra / no-splitrd-skip / rdpenalty=1 / psy-rd=0.00 / psy-rdoq=5.00 / no-rd-refine / no-lossless / cbqpoffs=-2 / crqpoffs=-2 / rc=crf / crf=19.0 / qcomp=0.70 / qpstep=4 / stats-write=0 / stats-read=0 / ipratio=1.40 / pbratio=1.30 / aq-mode=2 / aq-strength=0.80 / cutree / zone-count=0 / no-strict-cbr / qg-size=16 / no-rc-grain / qpmax=69 / qpmin=0 / no-const-vbv / sar=0 / overscan=0 / videoformat=5 / range=0 / colorprim=1 / transfer=2 / colormatrix=2 / chromaloc=0 / display-window=0 / max-cll=0,0 / min-luma=0 / max-luma=1023 / log2-max-poc-lsb=8 / vui-timing-info / vui-hrd-info / slices=1 / no-opt-qp-pps / no-opt-ref-list-length-pps / no-multi-pass-opt-rps / scenecut-bias=0.05 / no-opt-cu-delta-qp / no-aq-motion / no-hdr / no-hdr-opt / no-dhdr10-opt / analysis-reuse-level=5 / scale-factor=0 / refine-intra=0 / refine-inter=0 / refine-mv=0 / no-limit-sao / ctu-info=0 / no-lowpass-dct / refine-mv-type=0 / copy-pic=1
  33. Language                                 : Chinese
  34. Default                                  : Yes
  35. Forced                                   : No
  36. Color range                              : Limited
  37. Color primaries                          : BT.709
  38. Audio #1
  39. ID                                       : 2
  40. Format                                   : AC-3
  41. Format/Info                              : Audio Coding 3
  42. Commercial name                          : Dolby Digital
  43. Codec ID                                 : A_AC3
  44. Duration                                 : 1 h 34 min
  45. Bit rate mode                            : Constant
  46. Bit rate                                 : 640 kb/s
  47. Channel(s)                               : 6 channels
  48. Channel layout                           : L R C LFE Ls Rs
  49. Sampling rate                            : 48.0 kHz
  50. Frame rate                               : 31.250 FPS (1536 SPF)
  51. Compression mode                         : Lossy
  52. Stream size                              : 435 MiB (11%)
  53. Title                                    : 粤语
  54. Language                                 : Chinese
  55. Service kind                             : Complete Main
  56. Default                                  : Yes
  57. Forced                                   : No
  58. Audio #2
  59. ID                                       : 3
  60. Format                                   : AC-3
  61. Format/Info                              : Audio Coding 3
  62. Commercial name                          : Dolby Digital
  63. Codec ID                                 : A_AC3
  64. Duration                                 : 1 h 34 min
  65. Bit rate mode                            : Constant
  66. Bit rate                                 : 640 kb/s
  67. Channel(s)                               : 6 channels
  68. Channel layout                           : L R C LFE Ls Rs
  69. Sampling rate                            : 48.0 kHz
  70. Frame rate                               : 31.250 FPS (1536 SPF)
  71. Compression mode                         : Lossy
  72. Stream size                              : 435 MiB (11%)
  73. Title                                    : 国语
  74. Language                                 : Chinese
  75. Service kind                             : Complete Main
  76. Default                                  : No
  77. Forced                                   : No
  78. Text #1
  79. ID                                       : 4
  80. Format                                   : PGS
  81. Muxing mode                              : zlib
  82. Codec ID                                 : S_HDMV/PGS
  83. Codec ID/Info                            : Picture based subtitle format used on BDs/HD-DVDs
  84. Title                                    : 繁体
  85. Language                                 : Chinese
  86. Default                                  : Yes
  87. Forced                                   : No
  88. Text #2
  89. ID                                       : 5
  90. Format                                   : PGS
  91. Muxing mode                              : zlib
  92. Codec ID                                 : S_HDMV/PGS
  93. Codec ID/Info                            : Picture based subtitle format used on BDs/HD-DVDs
  94. Title                                    : 英文
  95. Language                                 : English
  96. Default                                  : No
  97. Forced                                   : No
  98. Menu
  99. 00:00:00.000                             : en:Chapter 01
  100. 00:03:20.583                             : en:Chapter 02
  101. 00:08:55.000                             : en:Chapter 03
  102. 00:13:24.375                             : en:Chapter 04
  103. 00:16:38.375                             : en:Chapter 05
  104. 00:23:25.208                             : en:Chapter 06
  105. 00:26:28.791                             : en:Chapter 07
  106. 00:30:10.458                             : en:Chapter 08
  107. 00:36:00.375                             : en:Chapter 09
  108. 00:43:59.000                             : en:Chapter 10
  109. 00:50:09.875                             : en:Chapter 11
  110. 00:55:54.791                             : en:Chapter 12
  111. 00:59:14.291                             : en:Chapter 13
  112. 01:05:03.833                             : en:Chapter 14
  113. 01:09:48.625                             : en:Chapter 15
  114. 01:14:30.708                             : en:Chapter 16
  115. 01:19:04.250                             : en:Chapter 17
  116. 01:22:41.208                             : en:Chapter 18
  117. 01:27:15.291                             : en:Chapter 19
  118. 01:31:47.000                             : en:Chapter 20





此处一般会放置磁力链或种子下载链接,不过此链接需要注册会员才能看到,点击“立即注册”
磁力链下载【下载链接仅对注册会员开放,登陆后可见】
BT9527电影天堂 1、BT9527电影天堂提供的BT文件均来源于互联网抓取,只供网友学习交流、技术提升使用。
2、我们遵守BitTorrent点对点协议原则,任何版权问题请联系原资源发布商,我们不处理任何版权纠纷,谢谢!如有争议请联系邮箱:BT9527#hotmail.com(#换成@)
3、如果您发现某页面或地址有错误,请联系站长邮箱BT9527#hotmail.com(#换成@),我们会尽快处理。您的热心是对BT9527电影天堂最大的支持。
4、本站建议去正规影院观看电影以支持电影行业发展。
最新回复 (0)

你可以在 登录 or 注册 后,对此帖发表评论!

返回
发新帖