赤壁(下)[国语音轨/简繁英字幕].Red.Cliff.Part2.2009.Bluray.1080p.x265.10bit-MiniHD 5.98GB

版主小s 1月前 135

✔资源类型:暂未分类   ✔电影年份:2009   ✔电影地区:大陆   ✔电影分类:动作

◎标  题 赤壁(下)
◎译  名 赤壁:决战天下 / Red Cliff /  Part 2 / Red Cliff: The Decisive Battle
◎年  代 2009
◎产  地 中国大陆 / 中国香港 / 日本 / 中国台湾 / 韩国
◎类  别 动作 / 历史 / 战争 / 古装
◎语  言 汉语普通话
◎上映日期 2009-01-08(中国大陆) / 2009-01-15(中国香港)
◎IMDb评分 7.6/10 (23790人评价)
◎IMDb链接 https://www.imdb.com/title/tt1326972/
◎豆瓣评分 6.4/10 (140441人评价)
◎豆瓣链接 https://movie.douban.com/subject/3291930/
◎片  长 142分钟
◎导  演 吴宇森 John Woo
◎编  剧 吴宇森 John Woo
       盛和煜 Heyu Sheng
       陈汗 Khan Chan
       郭筝 Cheng Kuo
       罗贯中 Guanzhong Luo
       臧金生 Jinsheng Zang
◎演  员 梁朝伟 Tony Leung Chiu Wai
       金城武 Takeshi Kaneshiro
       张丰毅 Fengyi Zhang
       佟大为 Dawei Tong
       林志玲 Chiling Lin
       张震 Chen Chang
       胡军 Jun Hu
       尤勇智 Yongzhi You
       中村狮童 Shido Nakamura
       宋佳 Jia Song
       巴森 Mijid Baasanjav
       臧金生 Jinsheng Zang
       叶华 Hua Ye
       马京京 Jingjing Ma
       张山 Shan Zhang
       何音 Yin He
       胡晓光 Xiaoguang Hu
       一真 Zhen Yi
       侯勇 Yong Hou
       季冠霖 Guanlin Ji
       师小红 Xiaohong Shi
       谢钢 Gang Xie

◎标  签 吴宇森 / 梁朝伟 / 赤壁 / 历史 / 金城武 / 中国 / 中国电影 / 林志玲

◎简  介
    八卦阵一战,孙刘联军力挫曹兵之锐气。曹操(张丰毅 饰)为此忧心忡忡,加之北方将士因水土不服,死伤过重,更令其头风病发作,幸得侍女骊姬(小宋佳 饰)陪伴照顾。孙尚香(赵薇 饰)易容潜入曹营,借士官长(佟大为 饰)垂青,窃取军情。为了适应水战,曹操采纳荆州降将蔡瑁、张允的意见,将战船用铁锁相连。此后,曹操帐下谋士蒋干(师小红 饰)主动请缨前去拜访故友周瑜(梁朝伟 饰)刺探虚实。周瑜将计就计,假借酒醉泄露军机,让蒋干带回假情报,曹操一怒之下误杀了蔡瑁张允。曹操将因瘟疫致死的将士尸体投入江水,名曰“鬼兵”,意欲扰乱孙刘联盟之军心,小乔(林志玲 饰)见此情景,遂决定夜探曹营,劝其退兵。眼看万事具备,但是风向不对,周瑜遂派鲁肃(侯勇 饰)找诸葛亮(金城武 饰)寻助……
  1. ##### MediaInfo ######
  2. General
  3. Unique ID                                : 11591116507383421317832429808888702501 (0x8B85E2A918EEDDE7369C56BEE35E625)
  4. Complete name                            : Red.Cliff.Part2.2009.Bluray.1080p.x265.10bit-MiniHD.mkv
  5. Format                                   : Matroska
  6. Format version                           : Version 4
  7. File size                                : 5.98 GiB
  8. Duration                                 : 2 h 21 min
  9. Overall bit rate                         : 6 057 kb/s
  10. Encoded date                             : UTC 2017-12-31 01:25:28
  11. Writing application                      : mkvmerge v19.0.0 ('Brave Captain') 64-bit
  12. Writing library                          : libebml v1.3.5 + libmatroska v1.4.8
  13. Video
  14. ID                                       : 1
  15. Format                                   : HEVC
  16. Format/Info                              : High Efficiency Video Coding
  17. Format profile                           : Main 10@L4@High
  18. Codec ID                                 : V_MPEGH/ISO/HEVC
  19. Duration                                 : 2 h 21 min
  20. Bit rate                                 : 5 358 kb/s
  21. Width                                    : 1 920 pixels
  22. Height                                   : 818 pixels
  23. Display aspect ratio                     : 2.35:1
  24. Frame rate mode                          : Constant
  25. Frame rate                               : 24.000 FPS
  26. Color space                              : YUV
  27. Chroma subsampling                       : 4:2:0
  28. Bit depth                                : 10 bits
  29. Bits/(Pixel*Frame)                       : 0.142
  30. Stream size                              : 5.29 GiB (88%)
  31. Title                                    : Video.hevc
  32. Default                                  : Yes
  33. Forced                                   : No
  34. Color range                              : Limited
  35. Color primaries                          : BT.709
  36. Audio
  37. ID                                       : 2
  38. Format                                   : AC-3
  39. Format/Info                              : Audio Coding 3
  40. Commercial name                          : Dolby Digital
  41. Codec ID                                 : A_AC3
  42. Duration                                 : 2 h 21 min
  43. Bit rate mode                            : Constant
  44. Bit rate                                 : 640 kb/s
  45. Channel(s)                               : 6 channels
  46. Channel layout                           : L R C LFE Ls Rs
  47. Sampling rate                            : 48.0 kHz
  48. Frame rate                               : 31.250 FPS (1536 SPF)
  49. Compression mode                         : Lossy
  50. Stream size                              : 647 MiB (11%)
  51. Title                                    : 普通话.ac3-5.1
  52. Language                                 : Chinese
  53. Service kind                             : Complete Main
  54. Default                                  : Yes
  55. Forced                                   : No
  56. Text #1
  57. ID                                       : 3
  58. Format                                   : PGS
  59. Codec ID                                 : S_HDMV/PGS
  60. Codec ID/Info                            : Picture based subtitle format used on BDs/HD-DVDs
  61. Duration                                 : 2 h 16 min
  62. Bit rate                                 : 17.8 kb/s
  63. Count of elements                        : 2604
  64. Stream size                              : 17.3 MiB (0%)
  65. Title                                    : 简体.sup
  66. Language                                 : Chinese
  67. Default                                  : Yes
  68. Forced                                   : No
  69. Text #2
  70. ID                                       : 4
  71. Format                                   : PGS
  72. Codec ID                                 : S_HDMV/PGS
  73. Codec ID/Info                            : Picture based subtitle format used on BDs/HD-DVDs
  74. Duration                                 : 2 h 16 min
  75. Bit rate                                 : 18.9 kb/s
  76. Count of elements                        : 2604
  77. Stream size                              : 18.4 MiB (0%)
  78. Title                                    : 繁体.sup
  79. Language                                 : Chinese
  80. Default                                  : No
  81. Forced                                   : No
  82. Text #3
  83. ID                                       : 5
  84. Format                                   : PGS
  85. Codec ID                                 : S_HDMV/PGS
  86. Codec ID/Info                            : Picture based subtitle format used on BDs/HD-DVDs
  87. Duration                                 : 2 h 16 min
  88. Bit rate                                 : 22.3 kb/s
  89. Count of elements                        : 2604
  90. Stream size                              : 21.7 MiB (0%)
  91. Title                                    : english.sup
  92. Language                                 : English
  93. Default                                  : No
  94. Forced                                   : No
  95. Menu
  96. 00:00:00.000                             : en:Chapter 01
  97. 00:06:12.667                             : en:Chapter 02
  98. 00:13:19.917                             : en:Chapter 03
  99. 00:22:45.917                             : en:Chapter 04
  100. 00:29:26.625                             : en:Chapter 05
  101. 00:37:53.875                             : en:Chapter 06
  102. 00:42:12.500                             : en:Chapter 07
  103. 00:50:20.000                             : en:Chapter 08
  104. 00:58:13.250                             : en:Chapter 09
  105. 01:03:38.125                             : en:Chapter 10
  106. 01:11:17.500                             : en:Chapter 11
  107. 01:17:01.333                             : en:Chapter 12
  108. 01:23:17.417                             : en:Chapter 13
  109. 01:31:21.125                             : en:Chapter 14
  110. 01:38:07.333                             : en:Chapter 15
  111. 01:48:06.000                             : en:Chapter 16
  112. 01:58:52.667                             : en:Chapter 17
  113. 02:14:33.000                             : en:Chapter 18





此处一般会放置磁力链或种子下载链接,不过此链接需要注册会员才能看到,点击“立即注册”
磁力链下载【下载链接仅对注册会员开放,登陆后可见】
BT9527电影天堂 1、BT9527电影天堂提供的BT文件均来源于互联网抓取,只供网友学习交流、技术提升使用。
2、我们遵守BitTorrent点对点协议原则,任何版权问题请联系原资源发布商,我们不处理任何版权纠纷,谢谢!如有争议请联系邮箱:BT9527#hotmail.com(#换成@)
3、如果您发现某页面或地址有错误,请联系站长邮箱BT9527#hotmail.com(#换成@),我们会尽快处理。您的热心是对BT9527电影天堂最大的支持。
4、本站建议去正规影院观看电影以支持电影行业发展。
最新回复 (0)

你可以在 登录 or 注册 后,对此帖发表评论!

返回
发新帖