赤壁(上)[国语音轨/简繁英字幕].Red.Cliff.Part1.2008.Bluray.1080p.x265.10bit-MiniHD 6.36GB

版主小s 1月前 124

✔资源类型:暂未分类   ✔电影年份:2008   ✔电影地区:大陆   ✔电影分类:动作

◎标  题 赤壁(上)
◎译  名 赤壁 / Red Cliff
◎年  代 2008
◎产  地 中国大陆 / 中国香港 / 中国台湾 / 日本 / 韩国
◎类  别 动作 / 历史 / 战争 / 古装
◎语  言 汉语普通话
◎上映日期 2008-07-10(中国大陆)
◎IMDb评分 7.4/10 (45343人评价)
◎IMDb链接 https://www.imdb.com/title/tt0425637/
◎豆瓣评分 6.4/10 (180450人评价)
◎豆瓣链接 https://movie.douban.com/subject/1465829/
◎片  长 146分钟
◎导  演 吴宇森 John Woo
◎编  剧 吴宇森 John Woo
       陈汗 Khan Chan
       郭筝 Cheng Kuo
       盛和煜 Heyu Sheng
       罗贯中 Guanzhong Luo
       王蕙玲 Hui-Ling Wang
       邹静之 Jingzhi Zou
       芦苇 Wei Lu
◎演  员 梁朝伟 Tony Leung Chiu Wai
       金城武 Takeshi Kaneshiro
       张丰毅 Fengyi Zhang
       张震 Chen Chang
       胡军 Jun Hu
       林志玲 Chiling Lin
       尤勇智 Yongzhi You
       中村狮童 Shido Nakamura
       宋佳 Jia Song
       臧金生 Jinsheng Zang
       巴森 Mijid Baasanjav
       侯勇 Yong Hou
       王庆祥 Qingxiang Wang
       马精武 Jingwu Ma
       佟大为 Dawei Tong
       崔浩博 Haobo Cui
       叶华 Hua Ye
       张山 Shan Zhang
       姜彤 Tong Jiang
       王宁 Ning Wang
       宋淑鑫 Shu Xin Song
       张贵博 Guibo Zhang
       魏国庆 Guoqing Wei
       胡晓光 Xiaoguang Hu
       何音 Yin He
       谢钢 Gang Xie
       王伟 Wei Wang
       张大星 Daxing Zhang
       许朋乐 Pengle Xu
       叶如芬 Ju-feng Yeh
       韩三平 Sanping Han
       任仲伦 Zhonglun Ren
       于冬 Dong Yu
       张家振 Terence Chang
       杨雪仪 Cher Yeung
       陆红实 Hongshi Lu
       岩代太郎 Tarô Iwashiro
       张黎 Li Zhang
       纪建民 Jianmin Ji
       吕乐 Yue Lu
       徐伟 Wei Xu
       黄伟 Wai Wong
       王天麟 Tianlin Wang
       杨红雨 Hongyu Yang
       林安儿 Angie Lam
       黄宏显 Eddy Wong
       星汉
       叶锦添 Timmy Yip
       刘绍春 Shaochun Liu
       杨占家 Zhanjia Yang
       叶锦添 Timmy Yip
       梁柏坚 Patrick Leung
       张进战 Jinzhan Zhang
       耶云哉治 Saiji Yakumo
       赵梓宇 Pitt Zhao
       杜军 Jun Du
       元奎 Corey Yuen
       任永强 Yongqiang Ren
       吕赢 Ying Lü
       周惠坤 Thomas Chow
       库尔班江·吐尔达洪
       黄蕾蕾 Leilei Huang
       龙筱竹 Xiaozhu Long
       涂灏 Hao Tu
       温波 Bo Wen
       斯科特·查尔斯·斯图瓦特 Scott Charles Stewart
       林迪安 Dion Lam
       石占杰 Zhanjie Shi

◎标  签 吴宇森 / 赤壁 / 梁朝伟 / 金城武 / 香港 / 香港电影 / 中国 / 2008

◎简  介
  东汉末年,汉室幼主难当大局,朝廷中曹操(张丰毅 饰)独断专行,挟天子以令诸侯,大夫孔融(王庆祥 饰)誓死直谏,结果落得给曹兵祭旗。原来曹操决心已定,欲剿灭刘备(尤勇 饰)、孙权(张震 饰)等江南反贼,一统天下。长坂坡一战后,刘备在军师诸葛亮(金城武 饰)辅佐之下,率结义 弟兄关羽、张飞(臧金生 饰)、赵云(胡军 饰)等,带领难民且战且退,最后只得求助于江东孙权。对于抗曹之事,孙权亦正犹豫不决。但大都督周瑜(梁朝伟 饰)与其妹孙尚香均力挺其出战,眼看大兵压境,孙刘联盟方现雏形。诸葛亮观周瑜严明治军,旗下大将甘兴(中村狮童 饰)身先士卒,颇感欣慰。此刻突然传来军中箭弩严重缺乏,孔明不顾鲁肃(侯勇 饰)好心劝阻,甘愿立下军令状,谋求箭弩……
  1. ##### MediaInfo ######
  2. General
  3. Unique ID                                : 188404860279699465257588711464178615946 (0x8DBD74CA0D71658BB1789E680095068A)
  4. Complete name                            : Red.Cliff.Part1.2008.Bluray.1080p.x265.10bit-MiniHD.mkv
  5. Format                                   : Matroska
  6. Format version                           : Version 4
  7. File size                                : 6.36 GiB
  8. Duration                                 : 2 h 25 min
  9. Overall bit rate                         : 6 261 kb/s
  10. Encoded date                             : UTC 2017-12-29 11:08:00
  11. Writing application                      : mkvmerge v19.0.0 ('Brave Captain') 64-bit
  12. Writing library                          : libebml v1.3.5 + libmatroska v1.4.8
  13. Video
  14. ID                                       : 1
  15. Format                                   : HEVC
  16. Format/Info                              : High Efficiency Video Coding
  17. Format profile                           : Main 10@L4@High
  18. Codec ID                                 : V_MPEGH/ISO/HEVC
  19. Duration                                 : 2 h 25 min
  20. Bit rate                                 : 5 555 kb/s
  21. Width                                    : 1 920 pixels
  22. Height                                   : 820 pixels
  23. Display aspect ratio                     : 2.35:1
  24. Frame rate mode                          : Constant
  25. Frame rate                               : 24.000 FPS
  26. Color space                              : YUV
  27. Chroma subsampling                       : 4:2:0
  28. Bit depth                                : 10 bits
  29. Bits/(Pixel*Frame)                       : 0.147
  30. Stream size                              : 5.64 GiB (89%)
  31. Title                                    : Video.HEVC
  32. Default                                  : Yes
  33. Forced                                   : No
  34. Color range                              : Limited
  35. Color primaries                          : BT.709
  36. Audio
  37. ID                                       : 2
  38. Format                                   : AC-3
  39. Format/Info                              : Audio Coding 3
  40. Commercial name                          : Dolby Digital
  41. Codec ID                                 : A_AC3
  42. Duration                                 : 2 h 25 min
  43. Bit rate mode                            : Constant
  44. Bit rate                                 : 640 kb/s
  45. Channel(s)                               : 6 channels
  46. Channel layout                           : L R C LFE Ls Rs
  47. Sampling rate                            : 48.0 kHz
  48. Frame rate                               : 31.250 FPS (1536 SPF)
  49. Compression mode                         : Lossy
  50. Stream size                              : 665 MiB (10%)
  51. Title                                    : Audio.ac3-5.1
  52. Language                                 : Chinese
  53. Service kind                             : Complete Main
  54. Default                                  : Yes
  55. Forced                                   : No
  56. Text #1
  57. ID                                       : 3
  58. Format                                   : PGS
  59. Codec ID                                 : S_HDMV/PGS
  60. Codec ID/Info                            : Picture based subtitle format used on BDs/HD-DVDs
  61. Duration                                 : 2 h 20 min
  62. Bit rate                                 : 19.2 kb/s
  63. Count of elements                        : 2902
  64. Stream size                              : 19.4 MiB (0%)
  65. Title                                    : 简体.sup
  66. Language                                 : Chinese
  67. Default                                  : Yes
  68. Forced                                   : No
  69. Text #2
  70. ID                                       : 4
  71. Format                                   : PGS
  72. Codec ID                                 : S_HDMV/PGS
  73. Codec ID/Info                            : Picture based subtitle format used on BDs/HD-DVDs
  74. Duration                                 : 2 h 20 min
  75. Bit rate                                 : 19.9 kb/s
  76. Count of elements                        : 2902
  77. Stream size                              : 20.0 MiB (0%)
  78. Title                                    : 繁体.sup
  79. Language                                 : Chinese
  80. Default                                  : No
  81. Forced                                   : No
  82. Text #3
  83. ID                                       : 5
  84. Format                                   : PGS
  85. Codec ID                                 : S_HDMV/PGS
  86. Codec ID/Info                            : Picture based subtitle format used on BDs/HD-DVDs
  87. Duration                                 : 2 h 20 min
  88. Bit rate                                 : 27.1 kb/s
  89. Count of elements                        : 2902
  90. Stream size                              : 27.3 MiB (0%)
  91. Title                                    : english.sup
  92. Language                                 : English
  93. Default                                  : No
  94. Forced                                   : No
  95. Menu
  96. 00:00:00.000                             : en:Chapter 01
  97. 00:08:16.375                             : en:Chapter 02
  98. 00:17:23.542                             : en:Chapter 03
  99. 00:24:41.958                             : en:Chapter 04
  100. 00:32:01.667                             : en:Chapter 05
  101. 00:38:19.000                             : en:Chapter 06
  102. 00:44:25.000                             : en:Chapter 07
  103. 00:50:22.000                             : en:Chapter 08
  104. 00:59:45.042                             : en:Chapter 09
  105. 01:03:46.000                             : en:Chapter 10
  106. 01:14:35.000                             : en:Chapter 11
  107. 01:18:27.000                             : en:Chapter 12
  108. 01:25:53.000                             : en:Chapter 13
  109. 01:35:02.000                             : en:Chapter 14
  110. 01:42:45.000                             : en:Chapter 15
  111. 01:48:57.000                             : en:Chapter 16
  112. 01:57:25.000                             : en:Chapter 17
  113. 02:01:06.000                             : en:Chapter 18
  114. 02:12:00.000                             : en:Chapter 19
  115. 02:17:53.000                             : en:Chapter 20





此处一般会放置磁力链或种子下载链接,不过此链接需要注册会员才能看到,点击“立即注册”
磁力链下载【下载链接仅对注册会员开放,登陆后可见】
BT9527电影天堂 1、BT9527电影天堂提供的BT文件均来源于互联网抓取,只供网友学习交流、技术提升使用。
2、我们遵守BitTorrent点对点协议原则,任何版权问题请联系原资源发布商,我们不处理任何版权纠纷,谢谢!如有争议请联系邮箱:BT9527#hotmail.com(#换成@)
3、如果您发现某页面或地址有错误,请联系站长邮箱BT9527#hotmail.com(#换成@),我们会尽快处理。您的热心是对BT9527电影天堂最大的支持。
4、本站建议去正规影院观看电影以支持电影行业发展。
最新回复 (0)

你可以在 登录 or 注册 后,对此帖发表评论!

返回
发新帖