警察故事2013[国粤多音轨/简繁英字幕].Police.Story.2013.BluRay.1080p.x265.10bit.2Audio-MiniHD 4.60GB

版主小s 1月前 111

✔资源类型:暂未分类   ✔电影年份:2013   ✔电影地区:大陆   ✔电影分类:剧情

◎标  题 警察故事2013
◎译  名 Police Story 2013 / Police Story: Lockdown
◎年  代 2013
◎产  地 中国大陆 / 中国香港
◎类  别 剧情 / 动作 / 犯罪
◎语  言 汉语普通话
◎上映日期 2013-12-24(中国大陆)
◎IMDb评分 5.9/10 (9845人评价)
◎IMDb链接 https://www.imdb.com/title/tt2599716/
◎豆瓣评分 5.9/10 (115319人评价)
◎豆瓣链接 https://movie.douban.com/subject/20266753/
◎片  长 108分钟
◎导  演 丁晟 Sheng Ding
◎编  剧 丁晟 Sheng Ding
◎演  员 成龙 Jackie Chan
       刘烨 Ye Liu
       景甜 Tian Jing
       殷桃 Tao Yin
       那威 Wei Na
       刘仪伟 Yiwei Liu
       柳海龙 Hailong Liu
       周晓鸥 Xiaoou Zhou
       于荣光 Ringo Yu
       吴樾 Yue Wu
       刘佩琦 Peiqi Liu
       古力娜扎 Coulee Nazha
       丁晟 Sheng Ding
       蔡鹭 Lu Cai
       罗礼贤 Bruce Law
       韩飞行 Feixing Han
       霸易 Alexandre Bailly
       黄信纲 Xingang Huang
       何静 Jing He
       邹一正 Yizheng Zou
       刘然 Randy Liu
       黄迪 Marina Huang
       福海 Hai Fu
       宋歌 Ge Song
       杜扬 Du Yang
       王鸿 Hong Wang
       张望 Wang Zhang
       李泠 Ling Li
       李宁 Ning Li
       刘然 Randy Liu
       捞仔 Loudboy
       丁豫 Yu Ding
       黄迪 Marina Huang
       邹一正 Yizheng Zou
       关键 Jian Guan
       刘禹霆 Yuting Liu
       罗礼贤 Bruce Law
       罗义民 Norman Law

◎简  介
  夜幕降临,资深刑警钟文(成龙 饰)接到离家出走许久的女儿苗苗(景甜 饰)的电话,他暗怀喜悦准时来到了正进行三周年店庆的武吧。武吧老板武江(刘烨 饰)热情地接待了他,但是酒吧内光怪陆离和乌烟瘴气的景象让钟文心生不快。稍后,苗苗抵达,眼见得纹身染发并且桀骜不驯的女儿,钟文尽 量和颜悦色与女儿沟通,可当得知武江是女儿的男朋友时还是发了脾气。就在此时,一名民工为索要工钱带着炸弹入场,钟文出手不凡解决争端,可没过多久却被人用棒球棍打晕。                                    
                                当他苏醒过来时,发现自己被人绑在椅子上,冷酷的武江宣布将其劫持为人质。有限的时间内,钟文不得不和这个狡猾凶狠的匪徒斗智斗勇,寻找逃脱的机会……
  1. ##### MediaInfo ######
  2. General
  3. Unique ID                                : 90663062546184509700480319665954387753 (0x4435121971D65D19D81BA3CE5D687729)
  4. Complete name                            : Police.Story.2013.BluRay.1080p.x265.10bit.2Audio-MiniHD.mkv
  5. Format                                   : Matroska
  6. Format version                           : Version 4
  7. File size                                : 4.60 GiB
  8. Duration                                 : 1 h 50 min
  9. Overall bit rate                         : 5 975 kb/s
  10. Encoded date                             : UTC 2018-02-01 08:06:20
  11. Writing application                      : mkvmerge v20.0.0 ('I Am The Sun') 64-bit
  12. Writing library                          : libebml v1.3.5 + libmatroska v1.4.8
  13. Video
  14. ID                                       : 1
  15. Format                                   : HEVC
  16. Format/Info                              : High Efficiency Video Coding
  17. Format profile                           : Main 10@L4@Main
  18. Codec ID                                 : V_MPEGH/ISO/HEVC
  19. Duration                                 : 1 h 50 min
  20. Bit rate                                 : 4 829 kb/s
  21. Width                                    : 1 920 pixels
  22. Height                                   : 816 pixels
  23. Display aspect ratio                     : 2.35:1
  24. Frame rate mode                          : Constant
  25. Frame rate                               : 24.000 FPS
  26. Color space                              : YUV
  27. Chroma subsampling                       : 4:2:0
  28. Bit depth                                : 10 bits
  29. Bits/(Pixel*Frame)                       : 0.128
  30. Stream size                              : 3.71 GiB (81%)
  31. Writing library                          : x265 2.6+31-3712d13c09bf:[Windows][MSVC 1912][64 bit] 10bit
  32. Encoding settings                        : cpuid=533541173503 / frame-threads=3 / numa-pools=8 / wpp / no-pmode / no-pme / no-psnr / no-ssim / log-level=2 / csv / csv-log-level=0 / input-csp=1 / input-res=1920x816 / interlace=0 / total-frames=158569 / level-idc=0 / high-tier=1 / uhd-bd=0 / ref=5 / no-allow-non-conformance / no-repeat-headers / annexb / no-aud / no-hrd / info / hash=0 / no-temporal-layers / no-open-gop / min-keyint=1 / keyint=360 / gop-lookahead=0 / bframes=9 / b-adapt=2 / b-pyramid / bframe-bias=0 / rc-lookahead=60 / lookahead-slices=4 / NTMzNTQ=uuDQuD2mJt9fsCf / scenecut=40 / radl=0 / no-intra-refresh / ctu=32 / min-cu-size=8 / rect / no-amp / max-tu-size=16 / tu-inter-depth=2 / tu-intra-depth=2 / limit-tu=4 / rdoq-level=1 / dynamic-rd=0.00 / ssim-rd / signhide / no-tskip / nr-intra=0 / nr-inter=0 / no-constrained-intra / no-strong-intra-smoothing / max-merge=3 / limit-refs=2 / limit-modes / me=3 / subme=5 / merange=25 / temporal-mvp / weightp / weightb / no-analyze-src-pics / deblock=-1:-1 / no-sao / no-sao-non-deblock / rd=4 / no-early-skip / rskip / no-fast-intra / no-tskip-fast / no-cu-lossless / b-intra / no-splitrd-skip / rdpenalty=1 / psy-rd=0.00 / psy-rdoq=5.00 / no-rd-refine / no-lossless / cbqpoffs=-2 / crqpoffs=-2 / rc=crf / crf=18.0 / qcomp=0.70 / qpstep=4 / stats-write=0 / stats-read=0 / ipratio=1.40 / pbratio=1.30 / aq-mode=2 / aq-strength=0.80 / cutree / zone-count=0 / no-strict-cbr / qg-size=16 / no-rc-grain / qpmax=69 / qpmin=0 / no-const-vbv / sar=0 / overscan=0 / videoformat=5 / range=0 / colorprim=1 / transfer=2 / colormatrix=2 / chromaloc=0 / display-window=0 / max-cll=0,0 / min-luma=0 / max-luma=1023 / log2-max-poc-lsb=8 / vui-timing-info / vui-hrd-info / slices=1 / no-opt-qp-pps / no-opt-ref-list-length-pps / no-multi-pass-opt-rps / scenecut-bias=0.05 / no-opt-cu-delta-qp / no-aq-motion / no-hdr / no-hdr-opt / no-dhdr10-opt / analysis-reuse-level=5 / scale-factor=0 / refine-intra=0 / refine-inter=0 / refine-mv=0 / no-limit-sao / ctu-info=0 / no-lowpass-dct / refine-mv-type=0 / copy-pic=1
  33. Language                                 : Chinese
  34. Default                                  : Yes
  35. Forced                                   : No
  36. Color range                              : Limited
  37. Color primaries                          : BT.709
  38. Audio #1
  39. ID                                       : 2
  40. Format                                   : AC-3
  41. Format/Info                              : Audio Coding 3
  42. Commercial name                          : Dolby Digital
  43. Codec ID                                 : A_AC3
  44. Duration                                 : 1 h 50 min
  45. Bit rate mode                            : Constant
  46. Bit rate                                 : 640 kb/s
  47. Channel(s)                               : 6 channels
  48. Channel layout                           : L R C LFE Ls Rs
  49. Sampling rate                            : 48.0 kHz
  50. Frame rate                               : 31.250 FPS (1536 SPF)
  51. Compression mode                         : Lossy
  52. Stream size                              : 504 MiB (11%)
  53. Title                                    : 粤语
  54. Language                                 : Chinese
  55. Service kind                             : Complete Main
  56. Default                                  : Yes
  57. Forced                                   : No
  58. Audio #2
  59. ID                                       : 3
  60. Format                                   : AC-3
  61. Format/Info                              : Audio Coding 3
  62. Commercial name                          : Dolby Digital
  63. Codec ID                                 : A_AC3
  64. Duration                                 : 1 h 50 min
  65. Bit rate mode                            : Constant
  66. Bit rate                                 : 448 kb/s
  67. Channel(s)                               : 6 channels
  68. Channel layout                           : L R C LFE Ls Rs
  69. Sampling rate                            : 48.0 kHz
  70. Frame rate                               : 31.250 FPS (1536 SPF)
  71. Compression mode                         : Lossy
  72. Stream size                              : 353 MiB (7%)
  73. Title                                    : 国语
  74. Language                                 : Chinese
  75. Service kind                             : Complete Main
  76. Default                                  : No
  77. Forced                                   : No
  78. Text #1
  79. ID                                       : 4
  80. Format                                   : PGS
  81. Muxing mode                              : zlib
  82. Codec ID                                 : S_HDMV/PGS
  83. Codec ID/Info                            : Picture based subtitle format used on BDs/HD-DVDs
  84. Duration                                 : 1 h 46 min
  85. Bit rate                                 : 60.0 kb/s
  86. Count of elements                        : 3288
  87. Stream size                              : 45.5 MiB (1%)
  88. Title                                    : 繁体
  89. Language                                 : Chinese
  90. Default                                  : Yes
  91. Forced                                   : No
  92. Text #2
  93. ID                                       : 5
  94. Format                                   : PGS
  95. Muxing mode                              : zlib
  96. Codec ID                                 : S_HDMV/PGS
  97. Codec ID/Info                            : Picture based subtitle format used on BDs/HD-DVDs
  98. Duration                                 : 1 h 46 min
  99. Bit rate                                 : 57.6 kb/s
  100. Count of elements                        : 3288
  101. Stream size                              : 43.7 MiB (1%)
  102. Title                                    : 简体
  103. Language                                 : Chinese
  104. Default                                  : No
  105. Forced                                   : No
  106. Text #3
  107. ID                                       : 6
  108. Format                                   : PGS
  109. Muxing mode                              : zlib
  110. Codec ID                                 : S_HDMV/PGS
  111. Codec ID/Info                            : Picture based subtitle format used on BDs/HD-DVDs
  112. Duration                                 : 1 h 46 min
  113. Bit rate                                 : 39.8 kb/s
  114. Count of elements                        : 3288
  115. Stream size                              : 30.2 MiB (1%)
  116. Title                                    : 英文
  117. Language                                 : English
  118. Default                                  : No
  119. Forced                                   : No





此处一般会放置磁力链或种子下载链接,不过此链接需要注册会员才能看到,点击“立即注册”
磁力链下载【下载链接仅对注册会员开放,登陆后可见】
BT9527电影天堂 1、BT9527电影天堂提供的BT文件均来源于互联网抓取,只供网友学习交流、技术提升使用。
2、我们遵守BitTorrent点对点协议原则,任何版权问题请联系原资源发布商,我们不处理任何版权纠纷,谢谢!如有争议请联系邮箱:BT9527#hotmail.com(#换成@)
3、如果您发现某页面或地址有错误,请联系站长邮箱BT9527#hotmail.com(#换成@),我们会尽快处理。您的热心是对BT9527电影天堂最大的支持。
4、本站建议去正规影院观看电影以支持电影行业发展。
最新回复 (0)

你可以在 登录 or 注册 后,对此帖发表评论!

返回
发新帖