西游记女儿国[国语音轨/中文字幕].The.Monkey.King.3.Kingdom.of.Women.2018.BluRay.1080p.x265.10bit-MiniHD 6.67GB

版主小s 1月前 196

✔资源类型:暂未分类   ✔电影年份:2018   ✔电影地区:大陆   ✔电影分类:喜剧

◎标  题 西游记女儿国
◎译  名 西游记·女儿国 / 西游记之女儿国 / The Monkey King 3: Kingdom of Women
◎年  代 2018
◎产  地 中国大陆 / 中国香港
◎类  别 喜剧 / 爱情 / 奇幻
◎语  言 汉语普通话
◎上映日期 2018-02-16(中国大陆)
◎IMDb评分 5.5/10 (1462人评价)
◎IMDb链接 https://www.imdb.com/title/tt6466464/
◎豆瓣评分 4.4/10 (144411人评价)
◎豆瓣链接 https://movie.douban.com/subject/25829175/
◎片  长 116分钟
◎导  演 郑保瑞 Pou-Soi Cheang
◎编  剧 文宁 Ning Wen
       吴承恩 Cheng'en Wu
◎演  员 郭富城 Aaron Kwok
       冯绍峰 Shaofeng Feng
       赵丽颖 Liying Zhao
       小沈阳 Xiao Shen-Yang
       罗子溢 Chung Him Law
       林志玲 Chiling Lin
       梁咏琪 Gigi Leung
       刘涛 Tao Liu
       孙伊涵 Yihan Sun
       苑琼丹 King-Tan Yuen
       潘斌龙 Binlong Pan
       陈雅丽 Allie Chan
       施诗 Shi Shi
       苏丽珊 Cecilia So
       苏菲 Fei Su
       马赛 Sire Ma
       汤畅 Chang Tang
       管乐 Le Guan
       孙若淇 Ruoqi Sun
       王路晴 Luqing Wang
       李谯玉 Qiaoyu Li
        
       彭必瑶 Biyao Peng
       张籽沐 Zimu Zhang
       王海峰 Hoifung Wong
       任雅静 Léa Ren
       赵英俊 Yingjun Zhao
       安德拉斯·伊克拉迪 Andras Ikladi
       Branden Juwon Lee Branden Juwon Lee
       Jay Seung Jaegal Jay Seung Jaegal
       Sung-jin Jung Sung-jin Jung

◎简  介
  唐僧师徒途经忘川河,因激怒河神而误入西梁女界。闯入其中,众人才发现这个国家只有女性,并且建国以来此地就没来过男性。而且国中立有祖训,将男人视为天敌。典籍中更有预言,指明有朝一日,会有东土而来的僧人带着一只猴子、一头猪和一个小蓝人闯入其中。他们到来之日,便是女儿国走向毁灭之时。
  1. ##### MediaInfo ######
  2. General
  3. Unique ID                                : 77023535631283173219360873672364319111 (0x39F23180A9A4C4B52B8CAA2BA1BCE187)
  4. Complete name                            : The.Monkey.King.3.Kingdom.of.Women.2018.BluRay.1080p.x265.10bit-MiniHD.mkv
  5. Format                                   : Matroska
  6. Format version                           : Version 4
  7. File size                                : 6.67 GiB
  8. Duration                                 : 1 h 54 min
  9. Overall bit rate                         : 8 378 kb/s
  10. Encoded date                             : UTC 2018-05-31 12:26:14
  11. Writing application                      : mkvmerge v23.0.0 ('The Bride Said No') 64-bit
  12. Writing library                          : libebml v1.3.6 + libmatroska v1.4.9
  13. Video
  14. ID                                       : 1
  15. Format                                   : HEVC
  16. Format/Info                              : High Efficiency Video Coding
  17. Format profile                           : Main 10@L4@Main
  18. Codec ID                                 : V_MPEGH/ISO/HEVC
  19. Duration                                 : 1 h 54 min
  20. Bit rate                                 : 7 727 kb/s
  21. Width                                    : 1 920 pixels
  22. Height                                   : 1 012 pixels
  23. Display aspect ratio                     : 1.897
  24. Frame rate mode                          : Constant
  25. Frame rate                               : 23.976 (24000/1001/53354) FPS
  26. Color space                              : YUV
  27. Chroma subsampling                       : 4:2:0
  28. Bit depth                                : 10 bits
  29. Bits/(Pixel*Frame)                       : 0.166
  30. Stream size                              : 6.15 GiB (92%)
  31. Writing library                          : x265 2.7+1-2aa737a99f51:[Windows][GCC 7.3.0][64 bit] 10bit
  32. Encoding settings                        : cpuid=533541173503 / frame-threads=3 / numa-pools=8 / wpp / no-pmode / no-pme / no-psnr / no-ssim / log-level=2 / input-csp=1 / input-res=1920x1012 / interlace=0 / total-frames=164017 / level-idc=0 / high-tier=1 / uhd-bd=0 / ref=5 / no-allow-non-conformance / no-repeat-headers / annexb / no-aud / no-hrd / info / hash=0 / no-temporal-layers / no-open-gop / min-keyint=1 / keyint=360 / gop-lookahead=0 / bframes=8 / b-adapt=2 / b-pyramid / bframe-bias=0 / rc-lookahead=60 / lookahead-slices=4 / NTMzNTQ=uuDQuD2mJt9fsCf / scenecut=40 / radl=0 / no-intra-refresh / ctu=32 / min-cu-size=8 / rect / no-amp / max-tu-size=16 / tu-inter-depth=2 / tu-intra-depth=2 / limit-tu=4 / rdoq-level=1 / dynamic-rd=0.00 / ssim-rd / signhide / no-tskip / nr-intra=0 / nr-inter=0 / no-constrained-intra / no-strong-intra-smoothing / max-merge=3 / limit-refs=2 / limit-modes / me=3 / subme=5 / merange=25 / temporal-mvp / weightp / weightb / no-analyze-src-pics / deblock=-1:-1 / no-sao / no-sao-non-deblock / rd=4 / no-early-skip / rskip / no-fast-intra / no-tskip-fast / no-cu-lossless / b-intra / no-splitrd-skip / rdpenalty=1 / psy-rd=0.00 / psy-rdoq=5.00 / no-rd-refine / no-lossless / cbqpoffs=-2 / crqpoffs=-2 / rc=crf / crf=20.0 / qcomp=0.70 / qpstep=4 / stats-write=0 / stats-read=0 / ipratio=1.40 / pbratio=1.30 / aq-mode=2 / aq-strength=0.80 / cutree / zone-count=0 / no-strict-cbr / qg-size=16 / no-rc-grain / qpmax=69 / qpmin=0 / no-const-vbv / sar=1 / overscan=0 / videoformat=5 / range=0 / colorprim=1 / transfer=2 / colormatrix=2 / chromaloc=0 / display-window=0 / max-cll=0,0 / min-luma=0 / max-luma=1023 / log2-max-poc-lsb=8 / vui-timing-info / vui-hrd-info / slices=1 / no-opt-qp-pps / no-opt-ref-list-length-pps / no-multi-pass-opt-rps / scenecut-bias=0.05 / no-opt-cu-delta-qp / no-aq-motion / no-hdr / no-hdr-opt / no-dhdr10-opt / analysis-reuse-level=5 / scale-factor=0 / refine-intra=0 / refine-inter=0 / refine-mv=0 / no-limit-sao / ctu-info=0 / no-lowpass-dct / refine-mv-type=0 / copy-pic=1
  33. Default                                  : Yes
  34. Forced                                   : No
  35. Color range                              : Limited
  36. Color primaries                          : BT.709
  37. Audio
  38. ID                                       : 3
  39. Format                                   : AC-3
  40. Format/Info                              : Audio Coding 3
  41. Commercial name                          : Dolby Digital
  42. Codec ID                                 : A_AC3
  43. Duration                                 : 1 h 54 min
  44. Bit rate mode                            : Constant
  45. Bit rate                                 : 640 kb/s
  46. Channel(s)                               : 6 channels
  47. Channel layout                           : L R C LFE Ls Rs
  48. Sampling rate                            : 48.0 kHz
  49. Frame rate                               : 31.250 FPS (1536 SPF)
  50. Compression mode                         : Lossy
  51. Stream size                              : 522 MiB (8%)
  52. Language                                 : Chinese
  53. Service kind                             : Complete Main
  54. Default                                  : No
  55. Forced                                   : No
  56. Text
  57. ID                                       : 2
  58. Format                                   : PGS
  59. Muxing mode                              : zlib
  60. Codec ID                                 : S_HDMV/PGS
  61. Codec ID/Info                            : Picture based subtitle format used on BDs/HD-DVDs
  62. Duration                                 : 1 h 48 min
  63. Bit rate                                 : 16.2 kb/s
  64. Count of elements                        : 2316
  65. Stream size                              : 12.5 MiB (0%)
  66. Language                                 : Chinese
  67. Default                                  : Yes
  68. Forced                                   : No
  69. Menu
  70. 00:00:00.000                             : en:Chapter 1
  71. 00:05:04.512                             : en:Chapter 2
  72. 00:09:29.777                             : en:Chapter 3
  73. 00:13:46.367                             : en:Chapter 4
  74. 00:17:21.373                             : en:Chapter 5
  75. 00:21:17.234                             : en:Chapter 6
  76. 00:27:03.747                             : en:Chapter 7
  77. 00:31:02.777                             : en:Chapter 8
  78. 00:36:00.825                             : en:Chapter 9
  79. 00:41:05.921                             : en:Chapter 10
  80. 00:48:14.683                             : en:Chapter 11
  81. 00:56:12.285                             : en:Chapter 12
  82. 01:01:52.583                             : en:Chapter 13
  83. 01:06:38.995                             : en:Chapter 14
  84. 01:14:13.073                             : en:Chapter 15
  85. 01:21:37.058                             : en:Chapter 16
  86. 01:29:13.723                             : en:Chapter 17
  87. 01:38:52.968                             : en:Chapter 18
  88. 01:44:48.156                             : en:Chapter 19
  89. 01:47:12.551                             : en:Chapter 20





此处一般会放置磁力链或种子下载链接,不过此链接需要注册会员才能看到,点击“立即注册”
磁力链下载【下载链接仅对注册会员开放,登陆后可见】
BT9527电影天堂 1、BT9527电影天堂提供的BT文件均来源于互联网抓取,只供网友学习交流、技术提升使用。
2、我们遵守BitTorrent点对点协议原则,任何版权问题请联系原资源发布商,我们不处理任何版权纠纷,谢谢!如有争议请联系邮箱:BT9527#hotmail.com(#换成@)
3、如果您发现某页面或地址有错误,请联系站长邮箱BT9527#hotmail.com(#换成@),我们会尽快处理。您的热心是对BT9527电影天堂最大的支持。
4、本站建议去正规影院观看电影以支持电影行业发展。
最新回复 (0)

你可以在 登录 or 注册 后,对此帖发表评论!

返回
发新帖