醉拳[国粤多音轨/简体字幕].Drunken.Master.1978.1080p.x265.10bit.2Audio-MiniHD 5.62GB

版主小s 1月前 103

✔资源类型:暂未分类   ✔电影年份:更 早   ✔电影地区:香港   ✔电影分类:喜剧

◎标  题 醉拳
◎译  名 Drunken Monkey in the Tiger's Eyes / Drunken Master
◎年  代 1978
◎产  地 中国香港
◎类  别 喜剧 / 动作
◎语  言 粤语
◎上映日期 1978-10-05
◎IMDb评分 7.5/10 (38896人评价)
◎IMDb链接 https://www.imdb.com/title/tt0080179/
◎豆瓣评分 7.7/10 (64278人评价)
◎豆瓣链接 https://movie.douban.com/subject/1296693/
◎片  长 111 分钟
◎导  演 袁和平 Woo-ping Yuen
◎编  剧 袁和平 Woo-ping Yuen
       吴思远 See-Yuen Ng
       萧龙 Lung Hsiao
◎演  员 成龙 Jackie Chan
       黄正利 Jang Lee Hwang
       石天 Dean Shek
       王憾尘 Han Chen Wang
       李春华 Lee Chun-Wa
       谭宝 Bo Tam
       唐晶 Jing Tang
       蔡晖 Fei Choi
       罗强 Chiang Lo
       黄哈 Ha Huang
       山怪 Kwai Shan
       林瑛 Linda Lin
       杨盼盼 Pan Pan Yeung
       袁信义 Shun-Yee Yuen
       袁小田 Siu-tien Yuen
       徐虾 Hsia Hsu
       李超俊 Chiao Chun Li
       冯敬文 Ging Man Fung
       袁和平 Woo-ping Yuen
       袁振洋 Brandy Yuen
       王将 Chiang Wang
       吴思远 See-Yuen Ng
       周福良 Fu Liang Chou
       丁远大 Yuen-Tai Ting
       卢瑞莲 Sui Lin Lo
       罗文 Norman Law
       萧龙 Lung Hsiao
       元奎 Corey Yuen
       袁振洋 Brandy Yuen

◎标  签 成龙 / 动作 / 香港 / 喜剧 / 香港电影 / 袁和平 / 醉拳 / 1978

◎简  介
  广东武术界名人黄麒英自儿子黄飞鸿(成龙)小时候起就严格训练其习武,可惜黄飞鸿少年时代年轻气盛,经常用三脚猫功夫在外惹事生非,武学上一直无大的长进。直到某次较量中被人打得落花流水且受到侮辱,黄飞鸿才发誓要拜苏乞儿(袁小田)为师好好习武。                                    
                                由于苏乞儿懒于收徒,加上对黄飞鸿的人品很不信任,他开出了种种苛刻条件。为表决心,黄飞鸿一一应允并努力将它们全都实现,终以真心将苏乞儿打动,令其将醉拳传授给了他,黄飞鸿渐从一名莽撞的少年成长为一个见义勇为的年轻人。
  1. ##### MediaInfo ######
  2. General
  3. Unique ID                                : 77670583221564372861501802834690939667 (0x3A6ECF696D648816037CDD5534DD9B13)
  4. Complete name                            : Drunken.Master.1978.1080p.x265.10bit.2Audio-MiniHD.mkv
  5. Format                                   : Matroska
  6. Format version                           : Version 4
  7. File size                                : 5.62 GiB
  8. Duration                                 : 1 h 51 min
  9. Overall bit rate                         : 7 240 kb/s
  10. Encoded date                             : UTC 2018-01-16 04:55:58
  11. Writing application                      : mkvmerge v19.0.0 ('Brave Captain') 32-bit
  12. Writing library                          : libebml v1.3.5 + libmatroska v1.4.8
  13. Video
  14. ID                                       : 1
  15. Format                                   : HEVC
  16. Format/Info                              : High Efficiency Video Coding
  17. Format profile                           : Main 10@L4@Main
  18. Codec ID                                 : V_MPEGH/ISO/HEVC
  19. Duration                                 : 1 h 51 min
  20. Bit rate                                 : 5 949 kb/s
  21. Width                                    : 1 920 pixels
  22. Height                                   : 802 pixels
  23. Display aspect ratio                     : 2.40:1
  24. Frame rate mode                          : Constant
  25. Frame rate                               : 23.976 (24000/1001/53354) FPS
  26. Color space                              : YUV
  27. Chroma subsampling                       : 4:2:0
  28. Bit depth                                : 10 bits
  29. Bits/(Pixel*Frame)                       : 0.161
  30. Stream size                              : 4.62 GiB (82%)
  31. Writing library                          : x265 2.6+24-69cfe46e8a3b:[Windows][GCC 7.2.0][64 bit] 10bit
  32. Encoding settings                        : cpuid=533541173503 / frame-threads=3 / numa-pools=8 / wpp / no-pmode / no-pme / no-psnr / no-ssim / log-level=2 / input-csp=1 / input-res=1920x802 / interlace=0 / total-frames=159961 / level-idc=0 / high-tier=1 / uhd-bd=0 / ref=5 / no-allow-non-conformance / no-repeat-headers / annexb / no-aud / no-hrd / info / hash=0 / no-temporal-layers / no-open-gop / min-keyint=1 / keyint=360 / gop-lookahead=0 / bframes=8 / b-adapt=2 / b-pyramid / bframe-bias=0 / rc-lookahead=40 / lookahead-slices=4 / NTMzNTQ=uuDQuD2mJt9fsCf / scenecut=40 / radl=0 / no-intra-refresh / ctu=32 / min-cu-size=8 / rect / no-amp / max-tu-size=16 / tu-inter-depth=2 / tu-intra-depth=2 / limit-tu=4 / rdoq-level=1 / dynamic-rd=0.00 / ssim-rd / signhide / no-tskip / nr-intra=0 / nr-inter=0 / no-constrained-intra / no-strong-intra-smoothing / max-merge=3 / limit-refs=2 / limit-modes / me=3 / subme=5 / merange=25 / temporal-mvp / weightp / weightb / no-analyze-src-pics / deblock=-1:-1 / no-sao / no-sao-non-deblock / rd=4 / no-early-skip / rskip / no-fast-intra / no-tskip-fast / no-cu-lossless / b-intra / no-splitrd-skip / rdpenalty=1 / psy-rd=0.00 / psy-rdoq=3.00 / no-rd-refine / no-lossless / cbqpoffs=-2 / crqpoffs=-2 / rc=crf / crf=21.0 / qcomp=0.70 / qpstep=4 / stats-write=0 / stats-read=0 / ipratio=1.40 / pbratio=1.30 / aq-mode=1 / aq-strength=0.70 / cutree / zone-count=0 / no-strict-cbr / qg-size=16 / no-rc-grain / qpmax=69 / qpmin=0 / no-const-vbv / sar=1 / overscan=0 / videoformat=5 / range=0 / colorprim=1 / transfer=2 / colormatrix=2 / chromaloc=0 / display-window=0 / max-cll=0,0 / min-luma=0 / max-luma=1023 / log2-max-poc-lsb=8 / vui-timing-info / vui-hrd-info / slices=1 / no-opt-qp-pps / no-opt-ref-list-length-pps / no-multi-pass-opt-rps / scenecut-bias=0.05 / no-opt-cu-delta-qp / no-aq-motion / no-hdr / no-hdr-opt / no-dhdr10-opt / analysis-save=(null) / analysis-load=(null) / analysis-reuse-level=5 / scale-factor=0 / refine-intra=0 / refine-inter=0 / refine-mv=0 / no-limit-sao / ctu-info=0 / no-lowpass-dct / refine-mv-type=0 / copy-pic=1
  33. Language                                 : Chinese
  34. Default                                  : Yes
  35. Forced                                   : No
  36. Color range                              : Limited
  37. Color primaries                          : BT.709
  38. Audio #1
  39. ID                                       : 2
  40. Format                                   : AC-3
  41. Format/Info                              : Audio Coding 3
  42. Commercial name                          : Dolby Digital
  43. Codec ID                                 : A_AC3
  44. Duration                                 : 1 h 51 min
  45. Bit rate mode                            : Constant
  46. Bit rate                                 : 640 kb/s
  47. Channel(s)                               : 2 channels
  48. Channel layout                           : L R
  49. Sampling rate                            : 48.0 kHz
  50. Frame rate                               : 31.250 FPS (1536 SPF)
  51. Compression mode                         : Lossy
  52. Stream size                              : 509 MiB (9%)
  53. Title                                    : 粤语
  54. Language                                 : Chinese
  55. Service kind                             : Complete Main
  56. Default                                  : Yes
  57. Forced                                   : No
  58. Audio #2
  59. ID                                       : 3
  60. Format                                   : AC-3
  61. Format/Info                              : Audio Coding 3
  62. Commercial name                          : Dolby Digital
  63. Codec ID                                 : A_AC3
  64. Duration                                 : 1 h 51 min
  65. Bit rate mode                            : Constant
  66. Bit rate                                 : 640 kb/s
  67. Channel(s)                               : 2 channels
  68. Channel layout                           : L R
  69. Sampling rate                            : 48.0 kHz
  70. Frame rate                               : 31.250 FPS (1536 SPF)
  71. Compression mode                         : Lossy
  72. Stream size                              : 509 MiB (9%)
  73. Title                                    : 国语
  74. Language                                 : Chinese
  75. Service kind                             : Complete Main
  76. Default                                  : No
  77. Forced                                   : No
  78. Text
  79. ID                                       : 4
  80. Format                                   : PGS
  81. Muxing mode                              : zlib
  82. Codec ID                                 : S_HDMV/PGS
  83. Codec ID/Info                            : Picture based subtitle format used on BDs/HD-DVDs
  84. Duration                                 : 1 h 50 min
  85. Bit rate                                 : 16.3 kb/s
  86. Count of elements                        : 1714
  87. Stream size                              : 12.8 MiB (0%)
  88. Title                                    : 简体
  89. Language                                 : Chinese
  90. Default                                  : Yes
  91. Forced                                   : No





此处一般会放置磁力链或种子下载链接,不过此链接需要注册会员才能看到,点击“立即注册”
磁力链下载【下载链接仅对注册会员开放,登陆后可见】
BT9527电影天堂 1、BT9527电影天堂提供的BT文件均来源于互联网抓取,只供网友学习交流、技术提升使用。
2、我们遵守BitTorrent点对点协议原则,任何版权问题请联系原资源发布商,我们不处理任何版权纠纷,谢谢!如有争议请联系邮箱:BT9527#hotmail.com(#换成@)
3、如果您发现某页面或地址有错误,请联系站长邮箱BT9527#hotmail.com(#换成@),我们会尽快处理。您的热心是对BT9527电影天堂最大的支持。
4、本站建议去正规影院观看电影以支持电影行业发展。
最新回复 (0)

你可以在 登录 or 注册 后,对此帖发表评论!

返回
发新帖