追龙[国粤英多音轨/简繁英字幕].Chasing.the.Dragon.2017.BluRay.1080p.x265.10bit.3Audio-MiniHD 7.28GB

版主小s 1月前 114

✔资源类型:暂未分类   ✔电影年份:2017   ✔电影地区:香港   ✔电影分类:动作

◎标  题 追龙
◎译  名 卧虎2 / 跛豪 / Chasing the Dragon
◎片  名 追龍
◎年  代 2017
◎产  地 中国香港 / 中国大陆
◎类  别 动作 / 犯罪
◎语  言 粤语 / 汉语普通话
◎上映日期 2017-09-30(中国大陆)
◎IMDb评分 6.8/10 (3846人评价)
◎IMDb链接 https://www.imdb.com/title/tt6015328/
◎豆瓣评分 7.2/10 (315127人评价)
◎豆瓣链接 https://movie.douban.com/subject/26425068/
◎片  长 128分钟
◎导  演 王晶 Jing Wong
       关智耀 Jason Kwan Chi-Yiu
◎编  剧 王晶 Jing Wong
       吕冠南 Koon-Nam Lui
       叶铭浩 Ming-Ho Yip
◎演  员 甄子丹 Donnie Yen
       刘德华 Andy Lau
       姜皓文 Philip Keung Ho-Man
       郑则仕 Kent Cheng
       刘浩龙 Wilfred Lau
       汤镇业 Ken Tong
       喻亢 Kang Yu
       胡然 Michelle Hu
       徐冬冬 Dongdong Xu
       黄日华 Felix Wong
       陈惠敏 Wai-Man Chan
       周励淇 Niki Chow
       吴毅将 Ben Ng
       伍允龙 Philip Ng
       易宇航 Julian Gaertner
       林靖文 Sophia Lam
       狼森 Philippe Joly
       姚文基 Man-kei Yiu
       叶铭浩 Ming-Ho Yip
       李日升 Jonathan Yat-Sing Lee
       王俊棠 Ricky Wong Chun-Tong
       尹子维 Terence Yin
       夏晴 Qing Xia
       郑恕峰 Shu Fung Cheng
       黄竣锋 Jason Wong
       周俊伟 Lawrence Chou
       麦克·里德 Mike Leeder
       韩昕怡 Xinyi Han
       叶朗钲 Mike Yip
       曾江 Kenneth Tsang
       聂安达 Anders Nelson

◎标  签 香港 / 黑帮 / 犯罪 / 警匪 / 动作 / 传记 / 2017 / 中国

◎简  介
    20世纪60年代,中国香港鱼龙混杂,混乱不堪。英国人治下的皇家警察贪婪无度,甚至与黑道相互勾结,搜刮民脂。年轻探长雷洛(刘德华 饰)踌躇满志,小心周旋在英国人和华人上司之间,并瞅准一切机会攀登权力山峰。在某次火并事件中,雷洛看中了敢打敢杀的伍世豪(甄子丹 饰)。来自南洋的伍世豪义字当头,情愿为兄弟两肋插刀。他凭借一股闯劲儿在黑道打出自己的位置,同时借着与雷洛相互帮衬的势头而声名鹊起。最终,刀头舔血的雷洛和伍世豪共同成为分别执掌白道和黑道的重量级人物。                                    
                                  而在这一过程中,这对兄弟也渐渐发生分歧。当风暴来临之际,一切即将变化……
  1. ##### MediaInfo ######
  2. General
  3. Unique ID                                : 336202016452231314786372427930085495265 (0xFCEE273091F7C984615A0903957611E1)
  4. Complete name                            : Chasing.the.Dragon.2017.BluRay.1080p.x265.10bit.3Audio-MiniHD.mkv
  5. Format                                   : Matroska
  6. Format version                           : Version 4
  7. File size                                : 7.28 GiB
  8. Duration                                 : 2 h 8 min
  9. Overall bit rate                         : 8 089 kb/s
  10. Encoded date                             : UTC 2018-01-26 01:47:52
  11. Writing application                      : mkvmerge v20.0.0 ('I Am The Sun') 64-bit
  12. Writing library                          : libebml v1.3.5 + libmatroska v1.4.8
  13. Video
  14. ID                                       : 1
  15. Format                                   : HEVC
  16. Format/Info                              : High Efficiency Video Coding
  17. Format profile                           : Main 10@L4@Main
  18. Codec ID                                 : V_MPEGH/ISO/HEVC
  19. Duration                                 : 2 h 8 min
  20. Bit rate                                 : 6 634 kb/s
  21. Width                                    : 1 920 pixels
  22. Height                                   : 804 pixels
  23. Display aspect ratio                     : 2.40:1
  24. Frame rate mode                          : Constant
  25. Frame rate                               : 24.000 FPS
  26. Color space                              : YUV
  27. Chroma subsampling                       : 4:2:0
  28. Bit depth                                : 10 bits
  29. Bits/(Pixel*Frame)                       : 0.179
  30. Stream size                              : 5.97 GiB (82%)
  31. Writing library                          : x265 2.6+2-32e6f04b8713:[Windows][GCC 7.2.0][64 bit] 10bit
  32. Encoding settings                        : cpuid=533541173503 / frame-threads=3 / numa-pools=8 / wpp / no-pmode / no-pme / no-psnr / no-ssim / log-level=2 / input-csp=1 / input-res=1920x804 / interlace=0 / total-frames=185479 / level-idc=0 / high-tier=1 / uhd-bd=0 / ref=5 / no-allow-non-conformance / no-repeat-headers / annexb / no-aud / no-hrd / info / hash=0 / no-temporal-layers / no-open-gop / min-keyint=1 / keyint=360 / bframes=8 / b-adapt=2 / b-pyramid / bframe-bias=0 / rc-lookahead=40 / lookahead-slices=4 / NTMzNTQ=uuDQuD2mJt9fsCf / scenecut=40 / no-intra-refresh / ctu=32 / min-cu-size=8 / rect / no-amp / max-tu-size=16 / tu-inter-depth=2 / tu-intra-depth=2 / limit-tu=4 / rdoq-level=1 / dynamic-rd=0.00 / ssim-rd / signhide / no-tskip / nr-intra=0 / nr-inter=0 / no-constrained-intra / no-strong-intra-smoothing / max-merge=3 / limit-refs=2 / limit-modes / me=3 / subme=5 / merange=25 / temporal-mvp / weightp / weightb / no-analyze-src-pics / deblock=-1:-1 / no-sao / no-sao-non-deblock / rd=4 / no-early-skip / rskip / no-fast-intra / no-tskip-fast / no-cu-lossless / b-intra / no-splitrd-skip / rdpenalty=1 / psy-rd=0.00 / psy-rdoq=3.00 / no-rd-refine / analysis-reuse-mode=0 / no-lossless / cbqpoffs=-2 / crqpoffs=-2 / rc=crf / crf=20.0 / qcomp=0.70 / qpstep=4 / stats-write=0 / stats-read=0 / ipratio=1.40 / pbratio=1.30 / aq-mode=2 / aq-strength=0.80 / cutree / zone-count=0 / no-strict-cbr / qg-size=16 / no-rc-grain / qpmax=69 / qpmin=0 / no-const-vbv / sar=1 / overscan=0 / videoformat=5 / range=0 / colorprim=1 / transfer=2 / colormatrix=2 / chromaloc=0 / display-window=0 / max-cll=0,0 / min-luma=0 / max-luma=1023 / log2-max-poc-lsb=8 / vui-timing-info / vui-hrd-info / slices=1 / no-opt-qp-pps / no-opt-ref-list-length-pps / no-multi-pass-opt-rps / scenecut-bias=0.05 / no-opt-cu-delta-qp / no-aq-motion / no-hdr / no-hdr-opt / no-dhdr10-opt / analysis-reuse-level=5 / scale-factor=0 / refine-intra=0 / refine-inter=0 / refine-mv=0 / no-limit-sao / ctu-info=0 / no-lowpass-dct / refine-mv-type=0 / copy-pic=1
  33. Language                                 : Chinese
  34. Default                                  : Yes
  35. Forced                                   : No
  36. Color range                              : Limited
  37. Color primaries                          : BT.709
  38. Audio #1
  39. ID                                       : 2
  40. Format                                   : AC-3
  41. Format/Info                              : Audio Coding 3
  42. Commercial name                          : Dolby Digital
  43. Codec ID                                 : A_AC3
  44. Duration                                 : 2 h 8 min
  45. Bit rate mode                            : Constant
  46. Bit rate                                 : 640 kb/s
  47. Channel(s)                               : 6 channels
  48. Channel layout                           : L R C LFE Ls Rs
  49. Sampling rate                            : 48.0 kHz
  50. Frame rate                               : 31.250 FPS (1536 SPF)
  51. Compression mode                         : Lossy
  52. Stream size                              : 590 MiB (8%)
  53. Title                                    : 粤语
  54. Language                                 : Chinese
  55. Service kind                             : Complete Main
  56. Default                                  : Yes
  57. Forced                                   : No
  58. Audio #2
  59. ID                                       : 3
  60. Format                                   : AC-3
  61. Format/Info                              : Audio Coding 3
  62. Commercial name                          : Dolby Digital
  63. Codec ID                                 : A_AC3
  64. Duration                                 : 2 h 8 min
  65. Bit rate mode                            : Constant
  66. Bit rate                                 : 128 kb/s
  67. Channel(s)                               : 2 channels
  68. Channel layout                           : L R
  69. Sampling rate                            : 48.0 kHz
  70. Frame rate                               : 31.250 FPS (1536 SPF)
  71. Compression mode                         : Lossy
  72. Stream size                              : 118 MiB (2%)
  73. Title                                    : 国语
  74. Language                                 : Chinese
  75. Service kind                             : Complete Main
  76. Default                                  : No
  77. Forced                                   : No
  78. Audio #3
  79. ID                                       : 4
  80. Format                                   : AC-3
  81. Format/Info                              : Audio Coding 3
  82. Commercial name                          : Dolby Digital
  83. Codec ID                                 : A_AC3
  84. Duration                                 : 2 h 8 min
  85. Bit rate mode                            : Constant
  86. Bit rate                                 : 640 kb/s
  87. Channel(s)                               : 6 channels
  88. Channel layout                           : L R C LFE Ls Rs
  89. Sampling rate                            : 48.0 kHz
  90. Frame rate                               : 31.250 FPS (1536 SPF)
  91. Compression mode                         : Lossy
  92. Stream size                              : 590 MiB (8%)
  93. Title                                    : 英语
  94. Language                                 : English
  95. Service kind                             : Complete Main
  96. Default                                  : No
  97. Forced                                   : No
  98. Text #1
  99. ID                                       : 5
  100. Format                                   : PGS
  101. Muxing mode                              : zlib
  102. Codec ID                                 : S_HDMV/PGS
  103. Codec ID/Info                            : Picture based subtitle format used on BDs/HD-DVDs
  104. Duration                                 : 2 h 3 min
  105. Bit rate                                 : 30.0 kb/s
  106. Count of elements                        : 3514
  107. Stream size                              : 26.6 MiB (0%)
  108. Title                                    : 繁体
  109. Language                                 : Chinese
  110. Default                                  : Yes
  111. Forced                                   : No
  112. Text #2
  113. ID                                       : 6
  114. Format                                   : PGS
  115. Muxing mode                              : zlib
  116. Codec ID                                 : S_HDMV/PGS
  117. Codec ID/Info                            : Picture based subtitle format used on BDs/HD-DVDs
  118. Duration                                 : 2 h 3 min
  119. Bit rate                                 : 26.6 kb/s
  120. Count of elements                        : 3508
  121. Stream size                              : 23.6 MiB (0%)
  122. Title                                    : 简体
  123. Language                                 : Chinese
  124. Default                                  : No
  125. Forced                                   : No
  126. Text #3
  127. ID                                       : 7
  128. Format                                   : PGS
  129. Muxing mode                              : zlib
  130. Codec ID                                 : S_HDMV/PGS
  131. Codec ID/Info                            : Picture based subtitle format used on BDs/HD-DVDs
  132. Duration                                 : 2 h 3 min
  133. Bit rate                                 : 37.5 kb/s
  134. Count of elements                        : 3521
  135. Stream size                              : 33.3 MiB (0%)
  136. Title                                    : 英文
  137. Language                                 : English
  138. Default                                  : No
  139. Forced                                   : No





此处一般会放置磁力链或种子下载链接,不过此链接需要注册会员才能看到,点击“立即注册”
磁力链下载【下载链接仅对注册会员开放,登陆后可见】
BT9527电影天堂 1、BT9527电影天堂提供的BT文件均来源于互联网抓取,只供网友学习交流、技术提升使用。
2、我们遵守BitTorrent点对点协议原则,任何版权问题请联系原资源发布商,我们不处理任何版权纠纷,谢谢!如有争议请联系邮箱:BT9527#hotmail.com(#换成@)
3、如果您发现某页面或地址有错误,请联系站长邮箱BT9527#hotmail.com(#换成@),我们会尽快处理。您的热心是对BT9527电影天堂最大的支持。
4、本站建议去正规影院观看电影以支持电影行业发展。
最新回复 (0)

你可以在 登录 or 注册 后,对此帖发表评论!

返回
发新帖