李碧华鬼魅系列:迷离夜[简繁字幕].Tales.from.the.Dark.1.2013.BluRay.1080p.x265.10bit-MiniHD 4.34GB

版主小s 1月前 250

✔资源类型:暂未分类   ✔电影年份:2013   ✔电影地区:香港   ✔电影分类:恐怖

◎标  题 李碧华鬼魅系列:迷离夜
◎译  名 迷离夜 / 鬼夜之迷离夜 / Blurred Night / Tales From The Dark: Part 1
◎片  名 李碧華鬼魅系列:迷離夜
◎年  代 2013
◎产  地 中国香港
◎类  别 恐怖
◎语  言 粤语
◎上映日期 2013-07-11(中国香港)
◎IMDb评分 5.5/10 (600人评价)
◎IMDb链接 https://www.imdb.com/title/tt3054776/
◎豆瓣评分 6.8/10 (20389人评价)
◎豆瓣链接 https://movie.douban.com/subject/22759660/
◎片  长 113分钟
◎导  演 任达华 Simon Yam
       李志毅 Chi-ngai Lee
       陈果 Fruit Chan
       泰迪·罗宾 Teddy Robin
◎编  剧 李碧华 Lilian Lee Pik-Wah
       陈果 Fruit Chan
       李志毅 Chi-ngai Lee
◎演  员 任达华 Simon Yam
       元秋 Qiu Yuen
       邵美琪 Maggie Siu
       骆应钧 Ying Kwan Lok
       林雪 Suet Lam
       梁家辉 Tony Leung
       陈慧琳 Kelly Chen
       颜卓灵 Cherry Ngan
       童爱玲 Eileen Tung
       陈滢 Jeannie Chan
       邵音音 Yin-Yin Shaw
       陈静 Dada Chan
       顾美华 Josephine Koo
       卢海鹏 Hoi-Pang Lo
       陈丽云 Lai-wun Chan
       袁富华 Fu-wah Yuen
       李凯贤 Brian Lee
       钟洁岚 Kannie Chung
       沈良杰 Kitson Shum
       杨斯雅 Cindy Yeung
       侯焕玲 Woon Ling Hau
       邓汉强 Matthew Tang
       川井宪次 Kenji Kawai
       林华全 Wah-Chuen Lam
       关智耀 Jason Kwan Chi-Yiu
       李志毅 Chi-ngai Lee
       陈果 Fruit Chan
       奚仲文 Chung-Man Hai

◎简  介
  《赃物》穷困潦倒的中年人关富强(任达华饰)无工可开,渐入绝境,他怨天尤人,憎恨命运的不公。正所谓穷则思变,一生穷怕了的老关剑走偏锋,铤而走险盗取他人骨灰,企图勒索赎金求活。黑天黑地,人鬼难分;《放手》提倡音乐驱邪的风水师父何可(梁家辉 饰)迫于高昂租金准备关张,在最后一天他邂逅一对自称撞鬼的夫妇,因感事态复杂,遂将夫妇介绍给同行好友水晶占卜师王兰(陈慧琳 饰),但他的最后一天营业却没这么简单结束,紧接着一名紧握左手的学生妹找到何师父;《惊蛰》惊蛰祭白虎,朱婆婆(邵音音 饰)照例来到鹅颈桥下摆摊打小人。是夜,先后有阔太太(顾美华 饰)以及名为梁震婴(卢海鹏 饰)的客人上门。当朱婆婆准备收摊之时,一名面容阴森的少女坐在旁边,要求打小人报复三男一女。                                    
                                本片根据李碧华短篇故事改编。
  1. ##### MediaInfo ######
  2. General
  3. Unique ID                                : 245952747102161621954370815660725981888 (0xB908C6AB8799F3EC9E86C51B3C8152C0)
  4. Complete name                            : Tales.from.the.Dark.1.2013.BluRay.1080p.x265.10bit-MiniHD.mkv
  5. Format                                   : Matroska
  6. Format version                           : Version 4
  7. File size                                : 4.34 GiB
  8. Duration                                 : 1 h 52 min
  9. Overall bit rate                         : 5 515 kb/s
  10. Encoded date                             : UTC 2018-01-23 03:14:30
  11. Writing application                      : mkvmerge v8.5.2 ('Crosses') 32bit
  12. Writing library                          : libebml v1.3.3 + libmatroska v1.4.4
  13. Video
  14. ID                                       : 1
  15. Format                                   : HEVC
  16. Format/Info                              : High Efficiency Video Coding
  17. Format profile                           : Main 10@L4@Main
  18. Codec ID                                 : V_MPEGH/ISO/HEVC
  19. Duration                                 : 1 h 52 min
  20. Bit rate                                 : 4 863 kb/s
  21. Width                                    : 1 920 pixels
  22. Height                                   : 1 080 pixels
  23. Display aspect ratio                     : 16:9
  24. Frame rate mode                          : Constant
  25. Frame rate                               : 24.000 FPS
  26. Color space                              : YUV
  27. Chroma subsampling                       : 4:2:0
  28. Bit depth                                : 10 bits
  29. Bits/(Pixel*Frame)                       : 0.098
  30. Stream size                              : 3.83 GiB (88%)
  31. Writing library                          : x265 2.6+14-f09f3b4a2115:[Windows][GCC 7.2.0][64 bit] 10bit
  32. Encoding settings                        : cpuid=533541173503 / frame-threads=2 / numa-pools=4 / wpp / no-pmode / no-pme / no-psnr / no-ssim / log-level=2 / input-csp=1 / input-res=1920x1080 / interlace=0 / total-frames=162384 / level-idc=0 / high-tier=1 / uhd-bd=0 / ref=5 / no-allow-non-conformance / no-repeat-headers / annexb / no-aud / no-hrd / info / hash=0 / no-temporal-layers / no-open-gop / min-keyint=1 / keyint=360 / gop-lookahead=0 / bframes=8 / b-adapt=2 / b-pyramid / bframe-bias=0 / rc-lookahead=60 / lookahead-slices=4 / NTMzNTQ=uuDQuD2mJt9fsCf / scenecut=40 / no-intra-refresh / ctu=32 / min-cu-size=8 / no-rect / no-amp / max-tu-size=16 / tu-inter-depth=2 / tu-intra-depth=2 / limit-tu=4 / rdoq-level=2 / dynamic-rd=0.00 / ssim-rd / signhide / no-tskip / nr-intra=0 / nr-inter=0 / no-constrained-intra / no-strong-intra-smoothing / max-merge=3 / limit-refs=2 / limit-modes / me=3 / subme=5 / merange=25 / temporal-mvp / weightp / weightb / no-analyze-src-pics / deblock=-1:-1 / no-sao / no-sao-non-deblock / rd=4 / no-early-skip / no-rskip / no-fast-intra / no-tskip-fast / no-cu-lossless / b-intra / no-splitrd-skip / rdpenalty=1 / psy-rd=0.00 / psy-rdoq=5.00 / no-rd-refine / analysis-reuse-mode=0 / no-lossless / cbqpoffs=-2 / crqpoffs=-2 / rc=crf / crf=18.0 / qcomp=0.65 / qpstep=4 / stats-write=0 / stats-read=0 / ipratio=1.40 / pbratio=1.30 / aq-mode=2 / aq-strength=0.90 / cutree / zone-count=0 / no-strict-cbr / qg-size=16 / no-rc-grain / qpmax=69 / qpmin=0 / no-const-vbv / sar=1 / overscan=0 / videoformat=5 / range=0 / colorprim=1 / transfer=2 / colormatrix=2 / chromaloc=0 / display-window=0 / max-cll=0,0 / min-luma=0 / max-luma=1023 / log2-max-poc-lsb=8 / vui-timing-info / vui-hrd-info / slices=1 / no-opt-qp-pps / no-opt-ref-list-length-pps / no-multi-pass-opt-rps / scenecut-bias=0.05 / no-opt-cu-delta-qp / no-aq-motion / no-hdr / no-hdr-opt / no-dhdr10-opt / analysis-reuse-level=5 / scale-factor=0 / refine-intra=0 / refine-inter=0 / refine-mv=0 / no-limit-sao / ctu-info=0 / no-lowpass-dct / refine-mv-type=0 / copy-pic=1
  33. Default                                  : Yes
  34. Forced                                   : No
  35. Color range                              : Limited
  36. Color primaries                          : BT.709
  37. Audio
  38. ID                                       : 2
  39. Format                                   : AC-3
  40. Format/Info                              : Audio Coding 3
  41. Commercial name                          : Dolby Digital
  42. Codec ID                                 : A_AC3
  43. Duration                                 : 1 h 52 min
  44. Bit rate mode                            : Constant
  45. Bit rate                                 : 640 kb/s
  46. Channel(s)                               : 6 channels
  47. Channel layout                           : L R C LFE Ls Rs
  48. Sampling rate                            : 48.0 kHz
  49. Frame rate                               : 31.250 FPS (1536 SPF)
  50. Compression mode                         : Lossy
  51. Stream size                              : 516 MiB (12%)
  52. Service kind                             : Complete Main
  53. Default                                  : Yes
  54. Forced                                   : No
  55. Text #1
  56. ID                                       : 3
  57. Format                                   : PGS
  58. Muxing mode                              : zlib
  59. Codec ID                                 : S_HDMV/PGS
  60. Codec ID/Info                            : Picture based subtitle format used on BDs/HD-DVDs
  61. Duration                                 : 1 h 44 min
  62. Bit rate                                 : 10.8 kb/s
  63. Count of elements                        : 2342
  64. Stream size                              : 8.12 MiB (0%)
  65. Title                                    : CHT
  66. Language                                 : Chinese
  67. Default                                  : Yes
  68. Forced                                   : Yes
  69. Text #2
  70. ID                                       : 4
  71. Format                                   : UTF-8
  72. Codec ID                                 : S_TEXT/UTF8
  73. Codec ID/Info                            : UTF-8 Plain Text
  74. Duration                                 : 1 h 44 min
  75. Bit rate                                 : 36 b/s
  76. Count of elements                        : 1172
  77. Stream size                              : 28.0 KiB (0%)
  78. Title                                    : CHS
  79. Language                                 : Chinese
  80. Default                                  : No
  81. Forced                                   : No
  82. Menu
  83. 00:00:00.000                             : en:Chapter 01
  84. 00:09:38.583                             : en:Chapter 02
  85. 00:18:07.500                             : en:Chapter 03
  86. 00:27:39.500                             : en:Chapter 04
  87. 00:37:34.833                             : en:Chapter 05
  88. 00:47:58.750                             : en:Chapter 06
  89. 00:56:06.125                             : en:Chapter 07
  90. 01:04:59.625                             : en:Chapter 08
  91. 01:18:01.958                             : en:Chapter 09
  92. 01:26:20.333                             : en:Chapter 10
  93. 01:35:23.417                             : en:Chapter 11
  94. 01:45:20.500                             : en:Chapter 12





此处一般会放置磁力链或种子下载链接,不过此链接需要注册会员才能看到,点击“立即注册”
磁力链下载【下载链接仅对注册会员开放,登陆后可见】
BT9527电影天堂 1、BT9527电影天堂提供的BT文件均来源于互联网抓取,只供网友学习交流、技术提升使用。
2、我们遵守BitTorrent点对点协议原则,任何版权问题请联系原资源发布商,我们不处理任何版权纠纷,谢谢!如有争议请联系邮箱:BT9527#hotmail.com(#换成@)
3、如果您发现某页面或地址有错误,请联系站长邮箱BT9527#hotmail.com(#换成@),我们会尽快处理。您的热心是对BT9527电影天堂最大的支持。
4、本站建议去正规影院观看电影以支持电影行业发展。
最新回复 (0)

你可以在 登录 or 注册 后,对此帖发表评论!

返回
发新帖